<?xml version="1.0" encoding="UTF-8"?>
<!DOCTYPE svg  PUBLIC '-//W3C//DTD SVG 1.1//EN'  'http://www.w3.org/Graphics/SVG/1.1/DTD/svg11.dtd'>
<svg version="1.1" xmlns="http://www.w3.org/2000/svg">
<defs>
<font id="Graphik-Bold" horiz-adv-x="408">
<font-face font-family="Graphik" font-weight="700" ascent="825" bbox="-39 -226 986 976" cap-height="715" descent="-175" panose-1="2 11 8 3 3 2 2 6 2 3" underline-position="-75" underline-thickness="50" unicode-range="U+0020-02DC" units-per-em="1000" x-height="523"/>
<missing-glyph/>
<glyph glyph-name="space" horiz-adv-x="197" unicode=" "/>
<glyph d="M171 -11q-45 0 -75.5 28.5t-30.5 70.5t30.5 71t75.5 29q22 0 41.5 -8t34.5 -21q14 -14 22.5 -32t8.5 -39t-8.5 -39t-22.5 -31q-15 -14 -34.5 -21.5t-41.5 -7.5zM70 715h202l-27 -480h-148z" glyph-name="exclam" horiz-adv-x="342" unicode="!"/>
<glyph d="M45 715h168l-21 -275h-127zM257 715h169l-21 -275h-127z" glyph-name="quotedbl" horiz-adv-x="470" unicode='"'/>
<glyph d="M295 241h-62l-21 -142h-121l21 142h-69v141h90l11 76h-77v134h97l18 123h121l-18 -123h62l19 123h121l-19 -123h72v-134h-92l-11 -76h79v-141h-100l-21 -142h-121zM254 382h62l11 76h-62z" glyph-name="numbersign" horiz-adv-x="584" unicode="#"/>
<glyph d="M292 -10q-130 9 -194.5 73t-69.5 163h185q4 -35 20.5 -60t58.5 -34v146q-65 9 -112 26.5t-77 44.5t-44.5 65.5t-14.5 90.5q0 45 17 83.5t50 67.5q32 28 78 46t103 22v89h78v-90q109 -9 171.5 -61t71.5 -155h-181q-5 29 -18 48t-44 27v-138q57 -8 104 -23t80 -40 q33 -26 51 -64t18 -92q0 -46 -15 -87t-46 -72q-31 -32 -79 -52t-113 -24v-125h-78v125zM437 203q0 25 -13.5 39t-53.5 23v-133q33 7 50 25.5t17 45.5zM224 520q0 -26 13.5 -41t54.5 -23v128q-34 -6 -51 -23t-17 -41z" glyph-name="dollar" horiz-adv-x="655" unicode="$"/>
<glyph d="M219 468q28 0 42.5 21t14.5 56t-14.5 55.5t-42.5 20.5t-43.5 -20t-15.5 -55q0 -38 15.5 -58t43.5 -20zM218 364q-44 0 -79 14t-59 38q-25 24 -38 57t-13 72q0 38 14.5 70.5t40.5 56.5q25 24 59.5 37.5t75.5 13.5q40 0 74.5 -13t60.5 -36q25 -24 39.5 -56t14.5 -70 q0 -39 -13.5 -72.5t-37.5 -58.5q-25 -25 -60.5 -39t-78.5 -14zM618 715h98l-496 -715h-98zM617 93q29 0 43.5 20.5t14.5 56.5q0 35 -14.5 55t-43.5 20q-27 0 -42.5 -20t-15.5 -55q0 -38 15.5 -57.5t42.5 -19.5zM616 -12q-44 0 -79 14t-59 38q-25 24 -38 57t-13 72 q0 38 14.5 70.5t40.5 56.5q25 24 59.5 37.5t75.5 13.5q40 0 75 -13t60 -36t39.5 -55t14.5 -71t-13.5 -72.5t-37.5 -58.5q-25 -25 -60.5 -39t-78.5 -14z" glyph-name="percent" horiz-adv-x="835" unicode="%"/>
<glyph d="M636 146l119 -146h-233l-42 52q-34 -27 -78.5 -45.5t-114.5 -18.5q-57 0 -103.5 14.5t-78.5 42.5q-33 28 -51 68t-18 91q0 69 40.5 120.5t116.5 87.5q-23 33 -33.5 66t-10.5 59q0 46 18 81t50 59q31 23 73 35t89 12q43 0 82 -10.5t69 -31.5t48 -52.5t18 -72.5 q0 -57 -35.5 -101.5t-107.5 -75.5l90 -110l52 102h156zM318 137q21 0 38.5 7.5t31.5 22.5l-113 136q-20 -12 -34 -30t-14 -47q0 -39 23 -64t68 -25zM325 535q0 -20 11 -39t30 -41q36 17 53.5 39t17.5 48q0 24 -14.5 39.5t-38.5 15.5q-26 0 -42.5 -16.5t-16.5 -45.5z" glyph-name="ampersand" horiz-adv-x="770" unicode="&amp;"/>
<glyph d="M45 715h175l-21 -275h-134z" glyph-name="quotesingle" horiz-adv-x="264" unicode="'"/>
<glyph d="M208 -148q-29 35 -58.5 80t-53.5 102t-39 126.5t-15 152.5q0 84 15 153.5t39 126.5t53.5 102t58.5 80h140q-25 -38 -49 -85.5t-43 -104.5q-19 -58 -31 -125.5t-12 -146.5q0 -78 12 -145.5t31 -124.5q19 -58 43 -105.5t49 -85.5h-140z" glyph-name="parenleft" horiz-adv-x="364" unicode="("/>
<glyph d="M15 -148q25 38 49.5 85.5t43.5 105.5q19 57 30.5 124.5t11.5 146.5q0 78 -11.5 145.5t-30.5 125.5q-19 57 -43.5 104.5t-49.5 85.5h140q29 -35 59 -80t54 -102t39 -126t15 -153t-15 -153.5t-39 -126.5t-54 -102t-59 -80h-140z" glyph-name="parenright" horiz-adv-x="364" unicode=")"/>
<glyph d="M61 447l89 90l-117 13l34 123l110 -53l-24 123h143l-24 -123l109 53l35 -123l-118 -13l89 -90l-107 -77l-56 115l-55 -115z" glyph-name="asterisk" horiz-adv-x="448" unicode="*"/>
<glyph d="M217 275h-176v130h176v192h144v-192h176v-130h-176v-192h-144v192z" glyph-name="plus" horiz-adv-x="578" unicode="+"/>
<glyph d="M20 -81l84 263l166 -59l-144 -245z" glyph-name="comma" horiz-adv-x="314" unicode=","/>
<glyph d="M55 353h280v-135h-280v135z" glyph-name="hyphen" horiz-adv-x="390" unicode="-"/>
<glyph d="M152 -11q-22 0 -41 8t-32 22q-14 13 -21.5 31.5t-7.5 39.5t7.5 39.5t21.5 32.5q13 13 32 21t41 8t41.5 -8t33.5 -21q14 -14 22 -32.5t8 -39.5t-8 -39.5t-22 -31.5q-14 -14 -33.5 -22t-41.5 -8z" glyph-name="period" horiz-adv-x="307" unicode="."/>
<glyph d="M297 776h143l-318 -924h-142z" glyph-name="slash" horiz-adv-x="442" unicode="/"/>
<glyph d="M372 147q66 0 94.5 48.5t28.5 148.5v29q0 99 -29.5 148t-95.5 49q-65 0 -95 -48.5t-30 -148.5v-30q0 -100 30.5 -148t96.5 -48zM366 -12q-75 0 -135.5 23.5t-102.5 69.5q-42 45 -65 111t-23 150v30q0 85 25 150.5t69 110.5t104.5 68.5t131.5 23.5q70 0 130.5 -22 t105.5 -65q44 -44 69 -109.5t25 -152.5v-28q0 -85 -23.5 -152t-66.5 -113q-44 -46 -106 -70.5t-138 -24.5z" glyph-name="zero" horiz-adv-x="740" unicode="0"/>
<glyph d="M172 513l-136 -84v171l164 115h177v-715h-205v513z" glyph-name="one" horiz-adv-x="458" unicode="1"/>
<glyph d="M12 29l250 265q54 57 86 104.5t32 92.5q0 36 -19 58t-57 22t-61.5 -26t-30.5 -90h-186q5 134 81.5 202t206.5 68q66 0 116 -17t84 -47q33 -30 50.5 -71.5t17.5 -90.5q0 -37 -10 -69.5t-27 -62.5q-18 -31 -43 -59.5t-55 -57.5l-100 -97h240v-153h-575v29z" glyph-name="two" horiz-adv-x="623" unicode="2"/>
<glyph d="M330 -12q-149 0 -221.5 65.5t-76.5 181.5h182q5 -45 28 -72t77 -27q48 0 71 21.5t23 59.5q0 42 -23.5 63t-70.5 21h-57v127h53q48 0 71.5 20.5t23.5 58.5q0 32 -20.5 51.5t-61.5 19.5q-42 0 -65.5 -23.5t-29.5 -67.5h-181q3 53 22.5 96.5t54.5 75.5q35 31 86 48.5 t118 17.5q63 0 113 -14t85 -39q34 -26 52.5 -62t18.5 -81q0 -60 -32 -98.5t-89 -55.5q62 -13 100.5 -54.5t38.5 -107.5q0 -102 -74 -163.5t-216 -61.5z" glyph-name="three" horiz-adv-x="660" unicode="3"/>
<glyph d="M370 137h-348v77l298 501h247v-437h92v-141h-92v-137h-197v137zM375 278v283l-160 -283h160z" glyph-name="four" horiz-adv-x="686" unicode="4"/>
<glyph d="M311 -12q-71 0 -123 18t-86 50q-35 32 -52.5 75.5t-19.5 93.5h186q3 -19 8.5 -34t16.5 -26q10 -11 26.5 -17t41.5 -6q45 0 65.5 29t20.5 72q0 48 -25 75t-72 27q-44 0 -72 -15t-46 -36h-122l15 421h482v-150h-334l-4 -158q20 29 60 52.5t107 23.5q49 0 89 -16t69 -47 q28 -31 43.5 -76.5t15.5 -103.5q0 -57 -20 -103.5t-57 -79.5q-38 -33 -91.5 -51t-121.5 -18z" glyph-name="five" horiz-adv-x="639" unicode="5"/>
<glyph d="M355 -12q-86 0 -145.5 26t-97.5 73q-38 46 -55 110t-17 141v19q0 87 24.5 155.5t67.5 116.5q43 47 102 71.5t127 24.5q121 0 190.5 -52.5t80.5 -158.5h-188q-5 26 -21.5 43t-54.5 17q-59 0 -90.5 -49t-34.5 -140q24 37 62.5 60t104.5 23q49 0 92 -14.5t75 -43.5t51 -72 t19 -99q0 -57 -20 -103t-57 -79q-38 -33 -92.5 -51t-122.5 -18zM353 133q43 0 69 29t26 75q0 45 -25 74t-70 29t-71 -29t-26 -72q0 -48 26 -77t71 -29z" glyph-name="six" horiz-adv-x="682" unicode="6"/>
<glyph d="M316 549h-288v166h544v-21l-248 -694h-208z" glyph-name="seven" horiz-adv-x="584" unicode="7"/>
<glyph d="M332 -12q-68 0 -123 14t-94 41t-60 67t-21 92q0 62 33 107t97 68q-47 21 -73.5 57.5t-26.5 90.5q0 48 21.5 85t58.5 63q37 25 86 38.5t104 13.5q57 0 106.5 -13t85.5 -38q36 -26 57 -63t21 -85q0 -55 -27.5 -91t-73.5 -57q64 -22 96 -66t32 -105q0 -52 -21.5 -92.5 t-60.5 -68.5t-94 -43t-123 -15zM333 132q43 0 70 24t27 67t-26.5 67t-69.5 24q-42 0 -70 -23.5t-28 -67.5q0 -43 27.5 -67t69.5 -24zM335 430q35 0 59.5 21t24.5 58q0 36 -25 57t-60 21t-59.5 -21t-24.5 -57q0 -37 25 -58t60 -21z" glyph-name="eight" horiz-adv-x="665" unicode="8"/>
<glyph d="M326 -11q-128 0 -199.5 55t-82.5 158h188q5 -27 23.5 -44t60.5 -17q64 0 92.5 47t30.5 139q-23 -37 -59.5 -60.5t-102.5 -23.5q-51 0 -95.5 14.5t-76.5 44.5q-33 29 -51.5 72t-18.5 100q0 56 20.5 102.5t58.5 79.5t92.5 51.5t122.5 18.5q80 0 139 -25.5t98 -71.5 q38 -47 57 -111t19 -142v-24q0 -175 -81 -269t-235 -94zM326 375q45 0 71.5 28.5t26.5 71.5q0 48 -26.5 77.5t-71.5 29.5q-43 0 -69 -29.5t-26 -75.5q0 -45 25 -73.5t70 -28.5z" glyph-name="nine" horiz-adv-x="683" unicode="9"/>
<glyph d="M155 -11q-22 0 -40.5 8t-31.5 22q-14 13 -22 31.5t-8 39.5t8 39.5t22 32.5q13 13 31.5 21t40.5 8t41.5 -8t33.5 -21q14 -14 22 -32.5t8 -39.5t-8 -39.5t-22 -31.5q-14 -14 -33.5 -22t-41.5 -8zM155 275q-44 0 -73 29t-29 72q0 21 8 39.5t22 32.5q13 13 31.5 21t40.5 8 t41.5 -8t33.5 -21q14 -14 22 -32.5t8 -39.5q0 -43 -30 -72t-75 -29z" glyph-name="colon" horiz-adv-x="313" unicode=":"/>
<glyph d="M14 -81l83 263l166 -59l-143 -245zM178 275q-45 0 -73.5 29t-28.5 72q0 21 7.5 39.5t21.5 32.5q13 13 32 21t41 8t41.5 -8t33.5 -21q14 -14 22 -32.5t8 -39.5q0 -43 -30 -72t-75 -29z" glyph-name="semicolon" horiz-adv-x="329" unicode=";"/>
<glyph d="M46 305v34l421 246v-162l-190 -100l190 -106v-158z" glyph-name="less" horiz-adv-x="521" unicode="&lt;"/>
<glyph d="M43 289h479v-122h-479v122zM43 486h479v-122h-479v122z" glyph-name="equal" horiz-adv-x="565" unicode="="/>
<glyph d="M53 223l191 99l-191 106v158l422 -246v-34l-422 -246v163z" glyph-name="greater" horiz-adv-x="521" unicode="&gt;"/>
<glyph d="M173 254q0 28 9 52t23 44t31.5 37.5l34.5 34.5q26 25 45.5 48.5t19.5 49.5q0 30 -15 45t-46 15q-32 0 -53 -23t-26 -65h-174q2 57 22 100.5t56 73.5q35 29 83 44t106 15q116 0 178.5 -49t62.5 -139q0 -50 -21.5 -85.5t-51.5 -64.5q-18 -18 -37 -35t-35 -33 q-17 -17 -28.5 -34t-14.5 -35v-15h-169v19zM258 -11q-23 0 -42.5 7.5t-33.5 21.5q-15 13 -23.5 31t-8.5 39t8.5 39t23.5 32q14 13 33.5 21t42.5 8q22 0 41 -8t34 -21q14 -14 22.5 -32t8.5 -39t-8.5 -39t-22.5 -31q-15 -14 -34 -21.5t-41 -7.5z" glyph-name="question" horiz-adv-x="564" unicode="?"/>
<glyph d="M464 -158q-101 0 -181.5 32t-135.5 87q-56 56 -85.5 130.5t-29.5 159.5q0 99 37.5 180.5t99.5 139.5q62 57 143.5 88.5t170.5 31.5t164.5 -26t131.5 -74q55 -48 86 -115t31 -149q0 -75 -18.5 -127t-48.5 -85q-31 -33 -70 -48t-79 -15q-66 0 -101 21t-46 61 q-20 -40 -53 -62t-81 -22q-74 0 -118.5 49.5t-44.5 136.5q0 53 15.5 96.5t42.5 74.5q27 30 63 47t77 17q47 0 72.5 -17.5t36.5 -42.5l7 52h147l-34 -273q-4 -32 6.5 -49t37.5 -17q21 0 40.5 11.5t34.5 36.5q15 24 24.5 63t9.5 94q0 65 -23.5 119t-66.5 93q-43 38 -104 59 t-137 21q-77 0 -144.5 -26t-116.5 -74q-50 -49 -78.5 -117.5t-28.5 -153.5q0 -71 22 -133t66 -108t110 -71.5t153 -25.5q88 0 153.5 26t103.5 62h91q-25 -36 -61.5 -65t-81.5 -50t-98 -32t-111 -11zM447 168q33 0 56.5 32t23.5 84q0 33 -16 52t-48 19q-34 0 -55.5 -31 t-21.5 -82q0 -32 15.5 -53t45.5 -21z" glyph-name="at" horiz-adv-x="929" unicode="@"/>
<glyph d="M246 715h265l227 -715h-217l-38 133h-237l-38 -133h-191zM286 274h157l-78 275z" glyph-name="A" horiz-adv-x="755" unicode="A"/>
<glyph d="M73 715h319q63 0 109 -13.5t75 -38.5t43 -59t14 -76v-4q0 -61 -30 -99.5t-91 -54.5q66 -11 104.5 -51.5t38.5 -115.5v-4q0 -96 -63.5 -147.5t-196.5 -51.5h-322v715zM358 137q49 0 72 21.5t23 61.5v4q0 41 -23.5 61.5t-77.5 20.5h-79v-169h85zM351 431q48 0 68 17.5 t20 55.5v4q0 37 -20.5 54t-67.5 17h-78v-148h78z" glyph-name="B" horiz-adv-x="687" unicode="B"/>
<glyph d="M409 -12q-94 0 -164 26t-116 74q-47 48 -70 115.5t-23 149.5v8q0 82 27.5 149.5t76.5 115.5t116 74t145 26q70 0 128 -16.5t102 -49.5q43 -34 69.5 -86t32.5 -123h-211q-6 55 -36 84t-84 29q-69 0 -109.5 -52t-40.5 -150v-8q0 -97 39.5 -149.5t113.5 -52.5 q54 0 89.5 28.5t43.5 88.5h204q-5 -69 -32 -122t-70 -88q-44 -35 -103 -53t-128 -18z" glyph-name="C" horiz-adv-x="767" unicode="C"/>
<glyph d="M326 158q92 0 134 48.5t42 148.5v8q0 103 -42 148.5t-136 45.5h-45v-399h47zM73 715h260q190 0 286.5 -91.5t96.5 -257.5v-8q0 -84 -24.5 -150t-72.5 -112q-49 -47 -121 -71.5t-166 -24.5h-259v715z" glyph-name="D" horiz-adv-x="751" unicode="D"/>
<glyph d="M73 715h494v-158h-290v-123h231v-146h-231v-130h306v-158h-510v715z" glyph-name="E" horiz-adv-x="620" unicode="E"/>
<glyph d="M73 715h483v-159h-277v-152h221v-151h-221v-253h-206v715z" glyph-name="F" horiz-adv-x="587" unicode="F"/>
<glyph d="M410 -12q-91 0 -161 27t-117 76q-48 48 -72.5 115t-24.5 147v8q0 82 28.5 149t78.5 115t118.5 74.5t149.5 26.5q63 0 121 -15t104 -47q45 -32 74 -81.5t34 -119.5h-203q-7 51 -39.5 76.5t-89.5 25.5q-76 0 -119 -55t-43 -152v-8q0 -44 8.5 -81.5t28.5 -64.5 q20 -28 51.5 -44t78.5 -16q37 0 63.5 9t43.5 24t25 34.5t10 40.5h-134v143h336v-88q0 -68 -22 -126.5t-66 -101.5t-109.5 -67t-152.5 -24z" glyph-name="G" horiz-adv-x="795" unicode="G"/>
<glyph d="M73 715h206v-273h235v273h205v-715h-205v282h-235v-282h-206v715z" glyph-name="H" horiz-adv-x="792" unicode="H"/>
<glyph d="M77 715h207v-715h-207v715z" glyph-name="I" horiz-adv-x="360" unicode="I"/>
<glyph d="M167 -9q-51 0 -79.5 6.5t-50.5 17.5v153q18 -6 37 -10t50 -4q42 0 67.5 21.5t25.5 77.5v462h206v-464q0 -130 -64.5 -195t-191.5 -65z" glyph-name="J" horiz-adv-x="486" unicode="J"/>
<glyph d="M73 715h206v-283l215 283h214l-262 -332l276 -383h-237l-206 299v-299h-206v715z" glyph-name="K" horiz-adv-x="734" unicode="K"/>
<glyph d="M73 715h206v-556h270v-159h-476v715z" glyph-name="L" horiz-adv-x="583" unicode="L"/>
<glyph d="M73 715h267l137 -381l137 381h262v-715h-204v445l-175 -445h-68l-173 445v-445h-183v715z" glyph-name="M" horiz-adv-x="950" unicode="M"/>
<glyph d="M73 715h231l229 -403v403h179v-715h-198l-261 449v-449h-180v715z" glyph-name="N" horiz-adv-x="785" unicode="N"/>
<glyph d="M414 149q76 0 120 54.5t44 151.5v8q0 96 -44.5 149t-120.5 53t-120 -52.5t-44 -150.5v-8q0 -98 45 -151.5t120 -53.5zM410 -12q-87 0 -156 27t-118 75t-75 115t-26 148v8q0 82 29 149t80 115t120 74t149 26q82 0 151.5 -25t120.5 -71q50 -47 78.5 -113.5t28.5 -149.5v-8 q0 -83 -27 -151t-77 -116q-50 -49 -120.5 -76t-157.5 -27z" glyph-name="O" horiz-adv-x="827" unicode="O"/>
<glyph d="M73 715h272q147 0 217 -62.5t70 -176.5v-4q0 -113 -72 -172t-206 -59h-77v-241h-204v715zM336 381q51 0 76 22.5t25 67.5v4q0 46 -26 66t-74 20h-60v-180h59z" glyph-name="P" horiz-adv-x="660" unicode="P"/>
<glyph d="M501 -3q-22 -5 -44.5 -7t-46.5 -2q-87 0 -156 27t-118 75t-75 115t-26 148v8q0 82 29 149t80 115t120 74t149 26q82 0 151.5 -25t120.5 -71q50 -47 78.5 -113.5t28.5 -149.5v-8q0 -94 -35 -168.5t-98 -123.5l72 -72l-114 -114zM249 354q0 -81 27.5 -131t75.5 -69l115 106 l64 -65q24 28 35.5 68t11.5 92v8q0 96 -44.5 149t-120.5 53t-120 -52.5t-44 -150.5v-8z" glyph-name="Q" horiz-adv-x="827" unicode="Q"/>
<glyph d="M73 715h280q141 0 216 -56.5t75 -170.5v-4q0 -77 -36.5 -121.5t-92.5 -66.5l171 -296h-216l-145 256h-48v-256h-204v715zM343 389q52 0 77.5 22t25.5 65v4q0 44 -26 62.5t-76 18.5h-67v-172h66z" glyph-name="R" horiz-adv-x="705" unicode="R"/>
<glyph d="M335 -12q-151 0 -227 61t-81 178h195q2 -19 8 -36t19 -29q12 -13 33 -20.5t53 -7.5q45 0 68.5 19.5t23.5 51.5q0 16 -5.5 27.5t-18.5 19.5q-13 7 -35 12t-54 10q-76 9 -127.5 25.5t-82.5 43.5q-32 27 -46 66t-14 93q0 48 19 89t55 71t87.5 46.5t115.5 16.5 q130 0 201 -54.5t81 -168.5h-190q-5 38 -27.5 57.5t-64.5 19.5t-62.5 -17t-20.5 -44q0 -15 5 -26t18 -19q12 -9 33.5 -15t54.5 -10q68 -8 119 -21.5t86 -38.5q34 -26 51.5 -65t17.5 -97q0 -49 -19 -92.5t-56 -75.5t-90.5 -51t-122.5 -19z" glyph-name="S" horiz-adv-x="655" unicode="S"/>
<glyph d="M210 557h-185v158h576v-158h-185v-557h-206v557z" glyph-name="T" horiz-adv-x="626" unicode="T"/>
<glyph d="M385 -12q-152 0 -234.5 75.5t-82.5 226.5v425h205v-416q0 -76 23.5 -113t88.5 -37q64 0 88 36t24 117v413h207v-422q0 -78 -22 -135.5t-63 -94.5q-42 -38 -101 -56.5t-133 -18.5z" glyph-name="U" horiz-adv-x="772" unicode="U"/>
<glyph d="M16 715h221l145 -502l146 502h192l-234 -715h-233z" glyph-name="V" horiz-adv-x="736" unicode="V"/>
<glyph d="M18 715h207l92 -446l96 446h182l104 -450l97 450h190l-167 -715h-214l-110 454l-111 -454h-200z" glyph-name="W" horiz-adv-x="1004" unicode="W"/>
<glyph d="M247 368l-204 347h233l112 -213l110 213h210l-192 -340l221 -375h-234l-133 246l-133 -246h-211z" glyph-name="X" horiz-adv-x="763" unicode="X"/>
<glyph d="M245 306l-233 409h223l121 -241l121 241h196l-222 -409v-306h-206v306z" glyph-name="Y" horiz-adv-x="685" unicode="Y"/>
<glyph d="M17 23l304 535h-265v157h556v-22l-300 -535h285v-158h-580v23z" glyph-name="Z" horiz-adv-x="635" unicode="Z"/>
<glyph d="M70 776h305v-131h-125v-662h125v-131h-305v924z" glyph-name="bracketleft" horiz-adv-x="417" unicode="["/>
<glyph d="M2 776h143l317 -924h-142z" glyph-name="backslash" horiz-adv-x="442" unicode="\"/>
<glyph d="M43 -17h124v662h-124v131h304v-924h-304v131z" glyph-name="bracketright" horiz-adv-x="417" unicode="]"/>
<glyph d="M191 715h157l164 -322h-153l-91 176l-91 -176h-150z" glyph-name="asciicircum" horiz-adv-x="539" unicode="^"/>
<glyph d="M3 -75h436v-86h-436v86z" glyph-name="underscore" horiz-adv-x="442" unicode="_"/>
<glyph d="M42 749h180l53 -166h-128z" glyph-name="grave" unicode="`"/>
<glyph d="M204 -12q-35 0 -67 9t-56 28q-25 19 -39.5 48.5t-14.5 71.5q0 92 73.5 131.5t204.5 39.5h50v12q0 38 -13 60.5t-56 22.5q-37 0 -52.5 -18.5t-18.5 -43.5h-168q3 47 22.5 82.5t52.5 59.5q32 23 76.5 34.5t98.5 11.5t97.5 -11.5t74.5 -35.5t47.5 -61.5t16.5 -89.5v-339 h-174v61q-19 -29 -55.5 -51t-99.5 -22zM266 109q38 0 63.5 20t25.5 54v32h-47q-54 0 -79 -12.5t-25 -44.5q0 -23 15 -36t47 -13z" glyph-name="a" horiz-adv-x="586" unicode="a"/>
<glyph d="M398 -12q-59 0 -100.5 25.5t-61.5 67.5v-81h-179v753h179v-308q23 38 63 65t100 27q46 0 86 -17t70 -51t47.5 -85t17.5 -118v-8q0 -68 -17.5 -118.5t-47.5 -83.5q-30 -34 -70.5 -51t-86.5 -17zM335 125q51 0 77 34t26 99v8q0 69 -27.5 102.5t-75.5 33.5 q-49 0 -76.5 -34.5t-27.5 -100.5v-8q0 -67 27.5 -100.5t76.5 -33.5z" glyph-name="b" horiz-adv-x="651" unicode="b"/>
<glyph d="M304 -12q-59 0 -109 17t-87 51q-37 33 -58 83t-21 116v8q0 65 22 116t60 86t88.5 53.5t108.5 18.5q48 0 92.5 -11t79.5 -36q35 -26 57.5 -67t26.5 -101h-168q-6 37 -25.5 56.5t-58.5 19.5q-48 0 -74 -33.5t-26 -99.5v-8q0 -69 26 -103.5t77 -34.5q38 0 62 22t29 65h161 q-4 -99 -70 -158.5t-193 -59.5z" glyph-name="c" horiz-adv-x="591" unicode="c"/>
<glyph d="M251 -12q-45 0 -85 16.5t-70 49.5t-47.5 83.5t-17.5 118.5v8q0 67 17 118t47 86q30 34 70.5 51.5t87.5 17.5q62 0 100 -24t61 -64v304h179v-753h-179v85q-20 -41 -61.5 -69t-101.5 -28zM314 125q49 0 77 33.5t28 100.5v8q0 66 -26.5 100.5t-76.5 34.5q-51 0 -77 -34 t-26 -102v-8q0 -66 27 -99.5t74 -33.5z" glyph-name="d" horiz-adv-x="650" unicode="d"/>
<glyph d="M313 -12q-62 0 -114 17.5t-89 51.5q-38 34 -59.5 84t-21.5 114v8q0 63 22 113.5t60 86.5t90 55t111 19q54 0 102 -16t85 -49q36 -33 57.5 -84t21.5 -121v-47h-368q4 -52 32.5 -80.5t76.5 -28.5q45 0 65.5 18t25.5 44h168q-12 -89 -79 -137t-186 -48zM404 321 q-2 48 -25 73t-67 25q-41 0 -67 -25t-33 -73h192z" glyph-name="e" horiz-adv-x="606" unicode="e"/>
<glyph d="M84 401h-66v122h66v46q0 97 56 144.5t149 47.5q25 0 44.5 -3t37.5 -8v-131q-10 3 -22 5t-27 2q-32 0 -46 -15.5t-14 -41.5v-46h106v-122h-106v-401h-178v401z" glyph-name="f" horiz-adv-x="394" unicode="f"/>
<glyph d="M302 -194q-67 0 -116 13.5t-82 38.5q-34 26 -52.5 61.5t-23.5 80.5h178q6 -29 26.5 -48.5t69.5 -19.5q60 0 85.5 30.5t25.5 79.5v80q-10 -19 -25.5 -36t-35.5 -30q-21 -14 -46.5 -22t-54.5 -8q-46 0 -86.5 16.5t-70.5 48.5t-47.5 79t-17.5 107v8q0 58 17.5 104.5 t47.5 79.5t70.5 50.5t86.5 17.5q63 0 101 -24t61 -64v74h179v-479q0 -118 -74.5 -178t-215.5 -60zM314 158q48 0 76 32t28 88v7q0 54 -26.5 86t-76.5 32q-51 0 -77 -32.5t-26 -86.5v-8q0 -54 27 -86t75 -32z" glyph-name="g" horiz-adv-x="649" unicode="g"/>
<glyph d="M57 753h179v-314q21 41 63.5 69.5t108.5 28.5q76 0 123.5 -48.5t47.5 -148.5v-340h-179v304q0 45 -18 66.5t-57 21.5q-40 0 -64.5 -24t-24.5 -75v-293h-179v753z" glyph-name="h" horiz-adv-x="632" unicode="h"/>
<glyph d="M62 523h179v-523h-179v523zM151 573q-42 0 -70 26t-28 66t28 66.5t70 26.5t70.5 -26.5t28.5 -66.5t-28.5 -66t-70.5 -26z" glyph-name="i" horiz-adv-x="303" unicode="i"/>
<glyph d="M-2 -54q33 2 48.5 16.5t15.5 45.5v515h178v-519q0 -42 -11 -77t-39 -60q-28 -24 -74.5 -37.5t-117.5 -13.5v130zM151 573q-42 0 -70 26t-28 66t28 66.5t70 26.5t70.5 -26.5t28.5 -66.5t-28.5 -66t-70.5 -26z" glyph-name="j" horiz-adv-x="303" unicode="j"/>
<glyph d="M57 753h179v-437l141 207h186l-171 -235l185 -288h-200l-141 229v-229h-179v753z" glyph-name="k" horiz-adv-x="585" unicode="k"/>
<glyph d="M62 753h178v-753h-178v753z" glyph-name="l" horiz-adv-x="302" unicode="l"/>
<glyph d="M57 523h179v-80q21 38 62 66t102 28q52 0 87.5 -21.5t54.5 -65.5q34 46 78.5 66.5t94.5 20.5q37 0 68.5 -12t54.5 -36q22 -25 35 -61.5t13 -85.5v-342h-179v312q0 40 -18 59.5t-49 19.5q-36 0 -58 -22.5t-22 -65.5v-303h-177v312q0 40 -18 59.5t-49 19.5q-36 0 -58 -22.5 t-22 -65.5v-303h-179v523z" glyph-name="m" horiz-adv-x="939" unicode="m"/>
<glyph d="M57 523h179v-84q21 41 63.5 69.5t108.5 28.5q76 0 123.5 -48.5t47.5 -148.5v-340h-179v304q0 45 -18 66.5t-57 21.5q-40 0 -64.5 -24t-24.5 -75v-293h-179v523z" glyph-name="n" horiz-adv-x="632" unicode="n"/>
<glyph d="M316 121q51 0 77 35.5t26 101.5v8q0 66 -26 101.5t-77 35.5t-77.5 -34.5t-26.5 -100.5v-8q0 -68 26 -103.5t78 -35.5zM315 -12q-60 0 -112.5 18t-90.5 52q-39 34 -61 84t-22 113v8q0 63 22 113.5t61 86.5q38 36 90.5 55t113.5 19q60 0 112.5 -18.5t90.5 -53.5t60 -85 t22 -112v-8q0 -64 -22 -114.5t-60 -85.5q-39 -35 -91.5 -53.5t-112.5 -18.5z" glyph-name="o" horiz-adv-x="630" unicode="o"/>
<glyph d="M57 523h179v-78q23 38 63 65t100 27q46 0 86 -17t70 -51t47.5 -85t17.5 -118v-8q0 -68 -17.5 -118.5t-47.5 -83.5q-30 -34 -70.5 -51t-86.5 -17q-60 0 -101 25t-61 64v-252h-179v698zM335 125q51 0 77 34t26 99v8q0 69 -27.5 102.5t-75.5 33.5q-49 0 -76.5 -34.5 t-27.5 -100.5v-8q0 -67 27.5 -100.5t76.5 -33.5z" glyph-name="p" horiz-adv-x="651" unicode="p"/>
<glyph d="M414 81q-20 -38 -61.5 -65.5t-101.5 -27.5q-45 0 -85 16.5t-70 49.5t-47.5 83.5t-17.5 118.5v8q0 67 17 118t47 86q30 34 70.5 51.5t87.5 17.5q62 0 100 -24t61 -64v74h179v-698h-179v256zM314 125q49 0 77 33.5t28 100.5v8q0 66 -26.5 100.5t-76.5 34.5q-51 0 -77 -34 t-26 -102v-8q0 -66 27 -99.5t74 -33.5z" glyph-name="q" horiz-adv-x="650" unicode="q"/>
<glyph d="M57 523h179v-104q25 59 66.5 85.5t102.5 25.5v-167q-82 2 -125.5 -25t-43.5 -90v-248h-179v523z" glyph-name="r" horiz-adv-x="436" unicode="r"/>
<glyph d="M262 -12q-112 0 -174.5 45t-65.5 133h165q5 -29 20.5 -44t53.5 -15q33 0 48.5 11.5t15.5 31.5q0 19 -21.5 29t-75.5 18q-53 7 -90.5 18.5t-61.5 31.5q-24 19 -35.5 48t-11.5 70q0 43 18 75.5t49 54.5q30 21 71 31.5t86 10.5q48 0 88.5 -9t70.5 -29t48.5 -52t23.5 -79 h-162q-5 26 -20.5 39t-46.5 13q-29 0 -44 -11.5t-15 -29.5q0 -19 20 -28t68 -15q54 -7 94.5 -18t67.5 -30q27 -20 40 -49t13 -71q0 -93 -64 -136.5t-173 -43.5z" glyph-name="s" horiz-adv-x="523" unicode="s"/>
<glyph d="M265 -12q-89 0 -136.5 43.5t-47.5 136.5v233h-63v122h63v109h179v-109h103v-122h-103v-216q0 -27 13.5 -41t39.5 -14q15 0 27 2t24 7v-136q-17 -5 -42 -10t-57 -5z" glyph-name="t" horiz-adv-x="397" unicode="t"/>
<glyph d="M229 -12q-38 0 -70 11.5t-55 35.5q-24 24 -37.5 60.5t-13.5 86.5v341h179v-312q0 -44 18.5 -66t55.5 -22q41 0 65 24t24 75v301h179v-523h-179v81q-21 -41 -60.5 -67t-105.5 -26z" glyph-name="u" horiz-adv-x="631" unicode="u"/>
<glyph d="M12 523h191l109 -337l107 337h171l-191 -523h-195z" glyph-name="v" horiz-adv-x="601" unicode="v"/>
<glyph d="M13 523h187l76 -313l88 313h144l78 -313l85 313h170l-166 -523h-171l-78 292l-81 -292h-174z" glyph-name="w" horiz-adv-x="853" unicode="w"/>
<glyph d="M189 266l-163 257h206l81 -138l79 138h184l-165 -243l181 -280h-206l-93 156l-95 -156h-183z" glyph-name="x" horiz-adv-x="608" unicode="x"/>
<glyph d="M221 53l-209 470h194l108 -279l100 279h171l-280 -698h-171z" glyph-name="y" horiz-adv-x="597" unicode="y"/>
<glyph d="M14 18l229 370h-205v135h461v-19l-235 -369h223v-135h-473v18z" glyph-name="z" horiz-adv-x="516" unicode="z"/>
<glyph d="M384 -148q-152 0 -219.5 55t-47.5 176l15 85q6 35 -16.5 60t-80.5 25v125q58 0 80.5 24.5t16.5 59.5l-15 84q-20 125 47.5 178t219.5 53v-130q-29 -2 -48 -7t-29 -16q-11 -11 -13.5 -28.5t0.5 -44.5l13 -101q7 -51 -20.5 -85.5t-82.5 -47.5q55 -13 82.5 -48t20.5 -86 l-13 -101q-7 -54 12.5 -75.5t77.5 -23.5v-131z" glyph-name="braceleft" horiz-adv-x="426" unicode="{"/>
<glyph d="M75 776h125v-924h-125v924z" glyph-name="bar" horiz-adv-x="276" unicode="|"/>
<glyph d="M42 -17q58 2 77.5 23.5t12.5 75.5l-13 101q-7 51 20.5 86t82.5 48q-55 13 -82.5 47.5t-20.5 85.5l13 101q3 27 0.5 44.5t-12.5 28.5q-11 11 -30 16t-48 7v130q76 0 131 -12.5t89 -40.5q33 -28 45 -71.5t2 -106.5l-15 -84q-6 -35 16.5 -59.5t80.5 -24.5v-125 q-58 0 -80.5 -25t-16.5 -60l15 -85q20 -121 -47.5 -176t-219.5 -55v131z" glyph-name="braceright" horiz-adv-x="426" unicode="}"/>
<glyph d="M32 214q3 54 16 91.5t34 61.5q20 23 45.5 34t52.5 11t49.5 -7t41.5 -15q18 -8 33.5 -15t28.5 -7q20 0 31 11.5t14 34.5h116q-2 -50 -15 -87t-33 -62t-45.5 -37t-52.5 -12q-28 0 -50.5 7t-40.5 15q-19 8 -34.5 15t-28.5 7q-20 0 -31 -12.5t-15 -33.5h-116z" glyph-name="asciitilde" horiz-adv-x="526" unicode="~"/>
<glyph glyph-name="uni00A0" horiz-adv-x="258" unicode=" "/>
<glyph d="M171.011 608.999q44.9971 0 75.4951 -28.498t30.498 -70.4961q0 -41.9971 -30.498 -70.9951t-75.4951 -28.998q-21.999 0 -41.498 7.99902q-19.499 8 -34.498 20.999q-13.999 13.999 -22.498 31.998q-8.5 17.999 -8.5 38.9971q0 20.999 8.5 38.998 q8.49902 17.999 22.498 30.998q14.999 13.999 34.498 21.499q19.499 7.49902 41.498 7.49902zM272.004 -116.956h-201.987l26.998 479.971h147.991z" glyph-name="exclamdown" horiz-adv-x="342" unicode="¡"/>
<glyph d="M279 -10q-54 5 -100 24t-79 53q-33 33 -52 80t-19 108v8q0 59 19 106.5t53 82.5q34 34 79.5 55t98.5 27v95h78v-94q44 -4 82.5 -18.5t68.5 -40.5q29 -27 47.5 -65t22.5 -89h-164q-4 30 -19 50t-38 28v-284q28 8 46 30.5t21 59.5h157q-5 -91 -63 -148.5t-161 -67.5v-125 h-78v125zM206 257q0 -57 19 -91.5t54 -47.5v281q-34 -12 -53.5 -45.5t-19.5 -88.5v-8z" glyph-name="cent" horiz-adv-x="603" unicode="¢"/>
<glyph d="M38 407h51q-5 20 -8.5 42t-3.5 47q0 55 21 97.5t58 72.5q37 29 87.5 44t108.5 15q69 0 119.5 -17.5t84.5 -48.5q33 -32 50 -76.5t20 -98.5h-187q-6 45 -25 66t-55 21t-57.5 -23t-21.5 -63q0 -20 2 -39t5 -39h177v-120h-157q2 -14 3 -28t1 -28q0 -17 -2.5 -31t-7.5 -28 q26 -8 48.5 -15t42.5 -7q30 0 45.5 15t17.5 44h184q-2 -47 -16 -87t-40 -69t-64 -45.5t-87 -16.5q-38 0 -68.5 8t-55.5 18q-26 10 -47 18t-39 8q-23 0 -35 -12.5t-14 -30.5h-151q4 58 29.5 106.5t76.5 69.5q4 12 6 26t2 29q0 13 -2 27t-6 29h-90v120z" glyph-name="sterling" horiz-adv-x="665" unicode="£"/>
<glyph d="M68 365h138l-191 350h222l104 -233l103 233h195l-182 -350h140v-72h-162v-50h162v-72h-162v-171h-205v171h-162v72h162v50h-162v72z" glyph-name="yen" horiz-adv-x="654" unicode="¥"/>
<glyph d="M75 301h125v-449h-125v449zM75 776h125v-404h-125v404z" glyph-name="brokenbar" horiz-adv-x="278" unicode="¦"/>
<glyph d="M296 -137q-105 0 -161.5 49t-60.5 134h163q2 -29 16.5 -45.5t46.5 -16.5q29 0 43.5 12.5t14.5 33.5q0 23 -23 35.5t-84 26.5q-51 12 -92.5 28t-70.5 39q-30 22 -46 53.5t-16 75.5q0 51 29.5 85t78.5 52q-22 23 -33.5 52t-11.5 64q0 43 17 77t48 58q30 24 72 36.5t92 12.5 q104 0 160 -49t60 -134h-162q-3 29 -16.5 44.5t-45.5 15.5q-29 0 -43 -13t-14 -33q0 -12 4.5 -21t16.5 -15q12 -7 32 -13.5t51 -13.5q50 -12 92 -26.5t72 -36.5t47 -54t17 -78q0 -50 -29.5 -84t-78.5 -54q22 -22 33 -50.5t11 -64.5q0 -41 -16.5 -74.5t-46.5 -57.5 q-31 -24 -73 -37t-93 -13zM372 224q24 5 34 17t10 30q0 13 -5.5 21.5t-17.5 15.5t-31 13.5t-45 14.5l-74 24q-22 -4 -33 -15.5t-11 -31.5q0 -23 24.5 -35.5t75.5 -28.5z" glyph-name="section" horiz-adv-x="614" unicode="§"/>
<glyph d="M97 580q-18 0 -33.5 6.5t-26.5 17.5q-12 11 -18.5 26.5t-6.5 32.5t6.5 32.5t18.5 27.5q11 11 26.5 17.5t33.5 6.5q36 0 61 -24.5t25 -59.5t-25 -59t-61 -24zM310 580q-36 0 -60.5 24t-24.5 59t24.5 59.5t60.5 24.5t61 -24.5t25 -59.5t-25 -59t-61 -24z" glyph-name="dieresis" unicode="¨"/>
<glyph d="M432 151q-107 0 -159.5 55.5t-52.5 147.5v8q0 46 16 83.5t44 63.5q27 26 65 40.5t83 14.5q80 0 131 -37.5t57 -119.5h-128q-3 30 -18 44.5t-42 14.5q-36 0 -56 -26t-20 -78v-7q0 -51 20 -78t58 -27q27 0 46 14.5t22 46.5h123q-5 -79 -57 -119.5t-132 -40.5zM424 31 q66 0 125 23.5t103 67.5q44 43 69.5 103t25.5 134q0 72 -25 132t-68 103q-44 43 -102.5 66.5t-125.5 23.5q-68 0 -126.5 -24t-101.5 -67q-44 -43 -69 -103t-25 -133q0 -74 25.5 -134t69.5 -102q43 -43 101.5 -66.5t123.5 -23.5zM424 -20q-80 0 -149.5 29t-121.5 80 q-52 50 -82 119t-30 149q0 79 30 148t82 120t122 80.5t151 29.5q82 0 152 -29t122 -80q51 -51 80.5 -119.5t29.5 -147.5q0 -81 -30 -150t-82 -120t-122.5 -80t-151.5 -29z" glyph-name="copyright" horiz-adv-x="851" unicode="©"/>
<glyph d="M172 287q-28 0 -53.5 7t-44.5 23q-20 15 -31.5 39t-11.5 57q0 73 56 102.5t164 29.5h40v15q0 25 -9.5 39.5t-38.5 14.5q-25 0 -36 -13.5t-13 -30.5h-148q5 75 59.5 114t145.5 39q93 0 144.5 -38t51.5 -120v-267h-153v47q-14 -21 -42.5 -39.5t-79.5 -18.5zM230 393 q26 0 43.5 13.5t17.5 36.5v23h-36q-34 0 -51.5 -9.5t-17.5 -29.5q0 -17 11 -25.5t33 -8.5z" glyph-name="ordfeminine" horiz-adv-x="491" unicode="ª"/>
<glyph d="M35 261l124 191h115l-119 -191l119 -191h-115zM215 261l124 191h115l-119 -191l119 -191h-115z" glyph-name="guillemotleft" horiz-adv-x="488" unicode="«"/>
<glyph d="M177 615h90q46 0 68.5 -17.5t22.5 -53.5v-1q0 -23 -10 -36.5t-27 -21.5l50 -89h-72l-40 75h-12v-75h-70v219zM262 516q14 0 21 6t7 17v1q0 11 -7 16.5t-21 5.5h-15v-46h15zM262 319q39 0 73 13.5t59 38.5q25 24 39.5 57.5t14.5 74.5q0 40 -14 74t-38 59 q-25 24 -59.5 37.5t-74.5 13.5q-41 0 -74.5 -13.5t-58.5 -38.5t-38.5 -59t-13.5 -74q0 -41 14.5 -74.5t39.5 -57.5q24 -24 58 -37.5t73 -13.5zM262 281q-48 0 -89.5 17t-72.5 47q-31 29 -49 69.5t-18 87.5q0 46 18 87t49 71q30 30 72 47.5t90 17.5q49 0 91 -17.5t73 -47.5 t48.5 -70.5t17.5 -86.5q0 -47 -18 -87.5t-49 -70.5t-73 -47t-90 -17z" glyph-name="registered" horiz-adv-x="525" unicode="®"/>
<glyph d="M50 712h307v-100h-307v100z" glyph-name="macron" unicode="¯"/>
<glyph d="M231 451q40 0 65.5 29t25.5 71q0 45 -25.5 74t-65.5 29q-41 0 -67 -29t-26 -74q0 -42 26 -71t67 -29zM231 381q-37 0 -69 13.5t-56 37.5q-24 23 -38 53.5t-14 65.5q0 36 14 67.5t38 55.5q24 23 56 36.5t69 13.5q36 0 68 -13.5t56 -36.5q24 -24 38 -55.5t14 -67.5 q0 -35 -14 -65.5t-38 -53.5q-24 -24 -56 -37.5t-68 -13.5z" glyph-name="degree" horiz-adv-x="461" unicode="°"/>
<glyph d="M217 341h-176v131h176v164h144v-164h176v-131h-176v-165h-144v165zM41 118h498v-118h-498v118z" glyph-name="plusminus" horiz-adv-x="578" unicode="±"/>
<glyph d="M9 356l128 133q32 32 50 55.5t18 46.5q0 16 -7.5 24t-23.5 8q-17 0 -27 -13t-13 -39h-120q2 74 46.5 111.5t119.5 37.5q79 0 117 -34.5t38 -85.5q0 -38 -21.5 -69.5t-55.5 -62.5l-35 -34h113v-95h-327v17z" glyph-name="twosuperior" horiz-adv-x="361" unicode="²"/>
<glyph d="M190 332q-44 0 -75.5 10t-51.5 28t-30 42.5t-11 53.5h116q2 -18 12.5 -30t32.5 -12q20 0 29.5 8.5t9.5 25.5t-11 25.5t-34 8.5h-30v74h30q24 0 34.5 8.5t10.5 25.5q0 13 -8.5 21t-25.5 8t-28 -9.5t-14 -28.5h-116q5 57 44 93t117 36q74 0 115 -27t41 -77q0 -32 -18 -52 t-50 -29q34 -5 55 -26.5t21 -55.5q0 -54 -41 -87.5t-124 -33.5z" glyph-name="threesuperior" horiz-adv-x="382" unicode="³"/>
<glyph d="M186 749h180l-105 -166h-128z" glyph-name="acute" unicode="´"/>
<glyph d="M260 329h-8q-100 0 -160 47t-60 142q0 50 16 87t46 62q29 24 69.5 36t88.5 12h233v-815h-76v751h-74v-751h-75v429z" glyph-name="paragraph" horiz-adv-x="559" unicode="¶"/>
<glyph d="M152 225q-22 0 -41 8t-32 22q-14 13 -21.5 31.5t-7.5 39.5t7.5 39.5t21.5 32.5q13 13 32 21t41 8t41.5 -8t33.5 -21q14 -14 22 -32.5t8 -39.5t-8 -39.5t-22 -31.5q-14 -14 -33.5 -22t-41.5 -8z" glyph-name="periodcentered" horiz-adv-x="307" unicode="·"/>
<glyph d="M208 -226q-54 0 -87 24t-40 69h84q3 -11 11 -19.5t25 -8.5q15 0 23.5 8.5t8.5 21.5q0 14 -8.5 22.5t-24.5 8.5q-12 0 -19.5 -3.5t-12.5 -7.5l-39 38l48 73h72l-31 -45q22 2 42 -2t36 -15q15 -10 24 -27.5t9 -41.5q0 -45 -33 -70t-88 -25z" glyph-name="cedilla" unicode="¸"/>
<glyph d="M106 587l-82 -46v107l102 67h114v-376h-134v248z" glyph-name="onesuperior" horiz-adv-x="294" unicode="¹"/>
<glyph d="M266 403q35 0 52.5 25.5t17.5 74.5v6q0 49 -17.5 73.5t-52.5 24.5t-53.5 -24t-18.5 -72v-6q0 -50 18 -76t54 -26zM265 287q-49 0 -91 14t-73 41t-49 66.5t-18 90.5v6q0 51 18 91.5t49 68.5t73.5 43t91.5 15q48 0 90 -14.5t73 -41.5q31 -28 49 -67.5t18 -89.5v-6 q0 -51 -18 -91.5t-49 -68.5t-73.5 -42.5t-90.5 -14.5z" glyph-name="ordmasculine" horiz-adv-x="530" unicode="º"/>
<glyph d="M154 261l-120 191h115l125 -191l-125 -191h-115zM334 261l-120 191h115l125 -191l-125 -191h-115z" glyph-name="guillemotright" horiz-adv-x="488" unicode="»"/>
<glyph d="M109 587l-82 -46v107l102 67h114v-376h-134v248zM600 70h-187v49l156 257h159v-219h48v-87h-48v-70h-128v70zM604 157v132l-77 -132h77zM630 715h94l-560 -715h-94z" glyph-name="onequarter" horiz-adv-x="803" unicode="¼"/>
<glyph d="M109 587l-82 -46v107l102 67h114v-376h-134v248zM459 17l128 133q32 32 50 55.5t18 46.5q0 16 -7.5 24t-23.5 8q-17 0 -27 -13t-13 -39h-120q2 74 46.5 111.5t119.5 37.5q79 0 117 -34.5t38 -85.5q0 -38 -21.5 -69.5t-55.5 -62.5l-35 -34h113v-95h-327v17zM617 715h94 l-560 -715h-94z" glyph-name="onehalf" horiz-adv-x="815" unicode="½"/>
<glyph d="M629 70h-187v49l156 257h159v-219h48v-87h-48v-70h-128v70zM633 157v132l-77 -132h77zM193 332q-44 0 -75.5 10t-51.5 28t-30 42.5t-11 53.5h116q2 -18 12.5 -30t32.5 -12q20 0 29.5 8.5t9.5 25.5t-11 25.5t-34 8.5h-30v74h30q24 0 34.5 8.5t10.5 25.5q0 13 -8.5 21 t-25.5 8t-28 -9.5t-14 -28.5h-116q5 57 44 93t117 36q74 0 115 -27t41 -77q0 -32 -18 -52t-50 -29q34 -5 55 -26.5t21 -55.5q0 -54 -41 -87.5t-124 -33.5zM678 715h94l-560 -715h-94z" glyph-name="threequarters" horiz-adv-x="834" unicode="¾"/>
<glyph d="M391.011 345.016q0 -27.998 -9 -51.9971q-8.99902 -23.998 -22.998 -43.9971t-31.498 -37.498l-34.498 -34.498q-25.998 -24.998 -45.4971 -48.4971q-19.499 -23.498 -19.499 -49.4971q0 -29.998 14.999 -44.9971t45.9971 -14.999q31.998 0 52.9971 22.999 q20.999 22.998 25.998 64.9961h173.989q-2 -56.9971 -21.998 -100.494q-19.999 -43.4971 -55.9971 -73.4951q-34.998 -28.999 -82.9951 -43.998t-105.993 -14.999q-115.993 0 -178.489 48.9971t-62.4961 138.992q0 49.9961 21.499 85.4941q21.498 35.498 51.4971 64.4961 q17.998 17.999 36.9971 34.998t34.998 32.998q16.999 16.999 28.498 33.998q11.5 16.999 14.499 34.998v14.999h168.99v-18.999zM306.016 609.999q22.999 0 42.4971 -7.49902q19.499 -7.5 33.498 -21.499q14.999 -12.999 23.499 -30.998q8.49902 -17.999 8.49902 -38.998 q0 -20.998 -8.49902 -38.9971q-8.5 -17.999 -23.499 -31.998q-13.999 -12.999 -33.498 -20.999q-19.498 -7.99902 -42.4971 -7.99902q-21.999 0 -40.9971 7.99902q-18.999 8 -33.998 20.999q-13.999 13.999 -22.499 31.998q-8.49902 17.999 -8.49902 38.9971 q0 20.999 8.49902 38.998q8.5 17.999 22.499 30.998q14.999 13.999 33.998 21.499q18.998 7.49902 40.9971 7.49902z" glyph-name="questiondown" horiz-adv-x="564" unicode="¿"/>
<glyph d="M246 715h265l227 -715h-217l-38 133h-237l-38 -133h-191zM286 274h157l-78 275zM216 905h186l49 -146h-135z" glyph-name="Agrave" horiz-adv-x="755" unicode="À"/>
<glyph d="M246 715h265l227 -715h-217l-38 133h-237l-38 -133h-191zM286 274h157l-78 275zM350 905h187l-103 -146h-135z" glyph-name="Aacute" horiz-adv-x="755" unicode="Á"/>
<glyph d="M246 715h265l227 -715h-217l-38 133h-237l-38 -133h-191zM286 274h157l-78 275zM302 905h150l110 -146h-130l-59 49l-58 -49h-127z" glyph-name="Acircumflex" horiz-adv-x="755" unicode="Â"/>
<glyph d="M246 715h265l227 -715h-217l-38 133h-237l-38 -133h-191zM286 274h157l-78 275zM440 758q-21 0 -38.5 5.5t-31.5 11.5t-26 11.5t-24 5.5t-20.5 -9.5t-10.5 -23.5h-102q3 39 13.5 68t27.5 48q16 19 37 28t44 9q20 0 37 -5t32 -11q14 -7 27 -12t25 -5q14 0 21.5 9t10.5 23 h101q-3 -39 -14 -68t-27 -48q-17 -19 -38.5 -28t-43.5 -9z" glyph-name="Atilde" horiz-adv-x="755" unicode="Ã"/>
<glyph d="M246 715h265l227 -715h-217l-38 133h-237l-38 -133h-191zM286 274h157l-78 275zM263 758q-18 0 -33.5 6.5t-26.5 17.5q-12 11 -18.5 26.5t-6.5 32.5q0 35 25 59.5t60 24.5q36 0 61 -24.5t25 -59.5t-25 -59t-61 -24zM486 758q-36 0 -60.5 24t-24.5 59t24.5 59.5t60.5 24.5 t61 -24.5t25 -59.5t-25 -59t-61 -24z" glyph-name="Adieresis" horiz-adv-x="755" unicode="Ä"/>
<glyph d="M246 715h265l227 -715h-217l-38 133h-237l-38 -133h-191zM286 274h157l-78 275zM375 810q20 0 33 14t13 36q0 23 -13 36.5t-33 13.5q-21 0 -33.5 -13.5t-12.5 -36.5q0 -22 12.5 -36t33.5 -14zM375 744q-25 0 -46.5 9.5t-37.5 25.5q-17 15 -26.5 36t-9.5 45t9.5 45 t26.5 37q16 16 37.5 25t46.5 9t46.5 -9t38.5 -25q16 -16 25.5 -37t9.5 -45t-9.5 -45t-25.5 -36q-17 -16 -38.5 -25.5t-46.5 -9.5z" glyph-name="Aring" horiz-adv-x="755" unicode="Å"/>
<glyph d="M336 715h622v-158h-283v-123h223v-146h-223v-130h299v-158h-504v146h-197l-63 -146h-195zM332 284h138v273h-20z" glyph-name="AE" horiz-adv-x="1010" unicode="Æ"/>
<glyph d="M383 -226q-54 0 -87 24t-40 69h84q3 -11 11 -19.5t25 -8.5q15 0 23.5 8.5t8.5 21.5q0 14 -8.5 22.5t-24.5 8.5q-12 0 -19.5 -3.5t-12.5 -7.5l-39 38l42 65q-78 8 -136 37.5t-97 76.5t-58 109.5t-19 137.5v8q0 82 27.5 149.5t76.5 115.5t116 74t145 26q70 0 128 -16.5 t102 -49.5q43 -34 69.5 -86t32.5 -123h-211q-6 55 -36 84t-84 29q-69 0 -109.5 -52t-40.5 -150v-8q0 -97 39.5 -149.5t113.5 -52.5q54 0 89.5 28.5t43.5 88.5h204q-5 -69 -31.5 -121t-68.5 -87q-43 -36 -101 -54t-126 -19l-22 -33q22 2 42 -2t36 -15q15 -10 24 -27.5 t9 -41.5q0 -45 -33 -70t-88 -25z" glyph-name="Ccedilla" horiz-adv-x="767" unicode="Ç"/>
<glyph d="M73 715h494v-158h-290v-123h231v-146h-231v-130h306v-158h-510v715zM168 905h186l49 -146h-135z" glyph-name="Egrave" horiz-adv-x="620" unicode="È"/>
<glyph d="M73 715h494v-158h-290v-123h231v-146h-231v-130h306v-158h-510v715zM302 905h187l-103 -146h-135z" glyph-name="Eacute" horiz-adv-x="620" unicode="É"/>
<glyph d="M73 715h494v-158h-290v-123h231v-146h-231v-130h306v-158h-510v715zM254 905h150l110 -146h-130l-59 49l-58 -49h-127z" glyph-name="Ecircumflex" horiz-adv-x="620" unicode="Ê"/>
<glyph d="M73 715h494v-158h-290v-123h231v-146h-231v-130h306v-158h-510v715zM215 758q-18 0 -33.5 6.5t-26.5 17.5q-12 11 -18.5 26.5t-6.5 32.5q0 35 25 59.5t60 24.5q36 0 61 -24.5t25 -59.5t-25 -59t-61 -24zM438 758q-36 0 -60.5 24t-24.5 59t24.5 59.5t60.5 24.5t61 -24.5 t25 -59.5t-25 -59t-61 -24z" glyph-name="Edieresis" horiz-adv-x="620" unicode="Ë"/>
<glyph d="M77 715h207v-715h-207v715zM21 905h186l49 -146h-135z" glyph-name="Igrave" horiz-adv-x="360" unicode="Ì"/>
<glyph d="M77 715h207v-715h-207v715zM155 905h187l-103 -146h-135z" glyph-name="Iacute" horiz-adv-x="360" unicode="Í"/>
<glyph d="M77 715h207v-715h-207v715zM107 905h150l110 -146h-130l-59 49l-58 -49h-127z" glyph-name="Icircumflex" horiz-adv-x="360" unicode="Î"/>
<glyph d="M77 715h207v-715h-207v715zM68 758q-18 0 -33.5 6.5t-26.5 17.5q-12 11 -18.5 26.5t-6.5 32.5q0 35 25 59.5t60 24.5q36 0 61 -24.5t25 -59.5t-25 -59t-61 -24zM291 758q-36 0 -60.5 24t-24.5 59t24.5 59.5t60.5 24.5t61 -24.5t25 -59.5t-25 -59t-61 -24z" glyph-name="Idieresis" horiz-adv-x="360" unicode="Ï"/>
<glyph d="M33 428h59v287h259q191 0 287 -91.5t96 -257.5v-8q0 -84 -24.5 -150t-72.5 -112q-48 -47 -120 -71.5t-166 -24.5h-259v290h-59v138zM345 158q91 0 133 48.5t42 148.5v8q0 103 -41.5 148.5t-135.5 45.5h-50v-129h120v-138h-120v-132h52z" glyph-name="Eth" horiz-adv-x="782" unicode="Ð"/>
<glyph d="M73 715h231l229 -403v403h179v-715h-198l-261 449v-449h-180v715zM475 758q-21 0 -38.5 5.5t-31.5 11.5t-26 11.5t-24 5.5t-20.5 -9.5t-10.5 -23.5h-102q3 39 13.5 68t27.5 48q16 19 37 28t44 9q20 0 37 -5t32 -11q14 -7 27 -12t25 -5q14 0 21.5 9t10.5 23h101 q-3 -39 -14 -68t-27 -48q-17 -19 -38.5 -28t-43.5 -9z" glyph-name="Ntilde" horiz-adv-x="785" unicode="Ñ"/>
<glyph d="M414 149q76 0 120 54.5t44 151.5v8q0 96 -44.5 149t-120.5 53t-120 -52.5t-44 -150.5v-8q0 -98 45 -151.5t120 -53.5zM410 -12q-87 0 -156 27t-118 75t-75 115t-26 148v8q0 82 29 149t80 115t120 74t149 26q82 0 151.5 -25t120.5 -71q50 -47 78.5 -113.5t28.5 -149.5v-8 q0 -83 -27 -151t-77 -116q-50 -49 -120.5 -76t-157.5 -27zM253 905h186l49 -146h-135z" glyph-name="Ograve" horiz-adv-x="827" unicode="Ò"/>
<glyph d="M414 149q76 0 120 54.5t44 151.5v8q0 96 -44.5 149t-120.5 53t-120 -52.5t-44 -150.5v-8q0 -98 45 -151.5t120 -53.5zM410 -12q-87 0 -156 27t-118 75t-75 115t-26 148v8q0 82 29 149t80 115t120 74t149 26q82 0 151.5 -25t120.5 -71q50 -47 78.5 -113.5t28.5 -149.5v-8 q0 -83 -27 -151t-77 -116q-50 -49 -120.5 -76t-157.5 -27zM387 905h187l-103 -146h-135z" glyph-name="Oacute" horiz-adv-x="827" unicode="Ó"/>
<glyph d="M414 149q76 0 120 54.5t44 151.5v8q0 96 -44.5 149t-120.5 53t-120 -52.5t-44 -150.5v-8q0 -98 45 -151.5t120 -53.5zM410 -12q-87 0 -156 27t-118 75t-75 115t-26 148v8q0 82 29 149t80 115t120 74t149 26q82 0 151.5 -25t120.5 -71q50 -47 78.5 -113.5t28.5 -149.5v-8 q0 -83 -27 -151t-77 -116q-50 -49 -120.5 -76t-157.5 -27zM339 905h150l110 -146h-130l-59 49l-58 -49h-127z" glyph-name="Ocircumflex" horiz-adv-x="827" unicode="Ô"/>
<glyph d="M414 149q76 0 120 54.5t44 151.5v8q0 96 -44.5 149t-120.5 53t-120 -52.5t-44 -150.5v-8q0 -98 45 -151.5t120 -53.5zM410 -12q-87 0 -156 27t-118 75t-75 115t-26 148v8q0 82 29 149t80 115t120 74t149 26q82 0 151.5 -25t120.5 -71q50 -47 78.5 -113.5t28.5 -149.5v-8 q0 -83 -27 -151t-77 -116q-50 -49 -120.5 -76t-157.5 -27zM477 758q-21 0 -38.5 5.5t-31.5 11.5t-26 11.5t-24 5.5t-20.5 -9.5t-10.5 -23.5h-102q3 39 13.5 68t27.5 48q16 19 37 28t44 9q20 0 37 -5t32 -11q14 -7 27 -12t25 -5q14 0 21.5 9t10.5 23h101q-3 -39 -14 -68 t-27 -48q-17 -19 -38.5 -28t-43.5 -9z" glyph-name="Otilde" horiz-adv-x="827" unicode="Õ"/>
<glyph d="M414 149q76 0 120 54.5t44 151.5v8q0 96 -44.5 149t-120.5 53t-120 -52.5t-44 -150.5v-8q0 -98 45 -151.5t120 -53.5zM410 -12q-87 0 -156 27t-118 75t-75 115t-26 148v8q0 82 29 149t80 115t120 74t149 26q82 0 151.5 -25t120.5 -71q50 -47 78.5 -113.5t28.5 -149.5v-8 q0 -83 -27 -151t-77 -116q-50 -49 -120.5 -76t-157.5 -27zM300 758q-18 0 -33.5 6.5t-26.5 17.5q-12 11 -18.5 26.5t-6.5 32.5q0 35 25 59.5t60 24.5q36 0 61 -24.5t25 -59.5t-25 -59t-61 -24zM523 758q-36 0 -60.5 24t-24.5 59t24.5 59.5t60.5 24.5t61 -24.5t25 -59.5 t-25 -59t-61 -24z" glyph-name="Odieresis" horiz-adv-x="827" unicode="Ö"/>
<glyph d="M43 184l152 152l-155 154l95 96l154 -156l153 153l94 -95l-153 -152l155 -154l-95 -95l-154 155l-152 -152z" glyph-name="multiply" horiz-adv-x="579" unicode="×"/>
<glyph d="M36 26l80 85q-39 47 -60 108.5t-21 133.5v8q0 82 29 149t80 115t120 74t149 26q66 0 123 -16t104 -46l73 77l59 -58l-69 -73q42 -45 65.5 -106.5t23.5 -136.5v-8q0 -83 -27 -151t-77 -116q-50 -49 -120.5 -76t-157.5 -27q-70 0 -128.5 17.5t-104.5 49.5l-82 -87zM414 149 q77 0 121.5 54.5t44.5 151.5v8q0 29 -4 53.5t-12 45.5l-260 -273q22 -20 49.5 -30t60.5 -10zM247 354q0 -27 3.5 -50t9.5 -42l255 270q-20 17 -45.5 25t-56.5 8q-77 0 -121.5 -52.5t-44.5 -150.5v-8z" glyph-name="Oslash" horiz-adv-x="827" unicode="Ø"/>
<glyph d="M385 -12q-152 0 -234.5 75.5t-82.5 226.5v425h205v-416q0 -76 23.5 -113t88.5 -37q64 0 88 36t24 117v413h207v-422q0 -78 -22 -135.5t-63 -94.5q-42 -38 -101 -56.5t-133 -18.5zM225 905h186l49 -146h-135z" glyph-name="Ugrave" horiz-adv-x="772" unicode="Ù"/>
<glyph d="M385 -12q-152 0 -234.5 75.5t-82.5 226.5v425h205v-416q0 -76 23.5 -113t88.5 -37q64 0 88 36t24 117v413h207v-422q0 -78 -22 -135.5t-63 -94.5q-42 -38 -101 -56.5t-133 -18.5zM359 905h187l-103 -146h-135z" glyph-name="Uacute" horiz-adv-x="772" unicode="Ú"/>
<glyph d="M385 -12q-152 0 -234.5 75.5t-82.5 226.5v425h205v-416q0 -76 23.5 -113t88.5 -37q64 0 88 36t24 117v413h207v-422q0 -78 -22 -135.5t-63 -94.5q-42 -38 -101 -56.5t-133 -18.5zM311 905h150l110 -146h-130l-59 49l-58 -49h-127z" glyph-name="Ucircumflex" horiz-adv-x="772" unicode="Û"/>
<glyph d="M385 -12q-152 0 -234.5 75.5t-82.5 226.5v425h205v-416q0 -76 23.5 -113t88.5 -37q64 0 88 36t24 117v413h207v-422q0 -78 -22 -135.5t-63 -94.5q-42 -38 -101 -56.5t-133 -18.5zM272 758q-18 0 -33.5 6.5t-26.5 17.5q-12 11 -18.5 26.5t-6.5 32.5q0 35 25 59.5t60 24.5 q36 0 61 -24.5t25 -59.5t-25 -59t-61 -24zM495 758q-36 0 -60.5 24t-24.5 59t24.5 59.5t60.5 24.5t61 -24.5t25 -59.5t-25 -59t-61 -24z" glyph-name="Udieresis" horiz-adv-x="772" unicode="Ü"/>
<glyph d="M245 306l-233 409h223l121 -241l121 241h196l-222 -409v-306h-206v306zM324 905h187l-103 -146h-135z" glyph-name="Yacute" horiz-adv-x="685" unicode="Ý"/>
<glyph d="M73 715h204v-117h68q148 0 217.5 -57t69.5 -173v-4q0 -112 -72 -170.5t-206 -58.5h-77v-135h-204v715zM336 275q51 0 76 22t25 66v4q0 47 -26 66t-74 19h-60v-177h59z" glyph-name="Thorn" horiz-adv-x="660" unicode="Þ"/>
<glyph d="M385 -10q-33 0 -57.5 3.5t-38.5 7.5v135q9 -3 21 -6t28 -3q19 0 36 5.5t31 18.5q13 13 21 35.5t8 56.5v6q0 34 -10.5 56.5t-28.5 36.5q-19 13 -44.5 19t-55.5 6v133q25 0 43 6.5t30 17.5q11 11 16.5 25t5.5 29v3q0 34 -19 53t-56 19q-36 0 -57.5 -24.5t-21.5 -69.5v-559 h-179v544q0 60 21.5 103t58.5 71q36 27 85 40t104 13q108 0 171 -46t63 -137v-2q0 -52 -33.5 -89t-85.5 -53q35 -8 67 -24.5t56 -41.5q24 -26 38 -61t14 -80v-7q0 -61 -17.5 -106t-47.5 -75q-31 -30 -73.5 -44.5t-92.5 -14.5z" glyph-name="germandbls" horiz-adv-x="644" unicode="ß"/>
<glyph d="M204 -12q-35 0 -67 9t-56 28q-25 19 -39.5 48.5t-14.5 71.5q0 92 73.5 131.5t204.5 39.5h50v12q0 38 -13 60.5t-56 22.5q-37 0 -52.5 -18.5t-18.5 -43.5h-168q3 47 22.5 82.5t52.5 59.5q32 23 76.5 34.5t98.5 11.5t97.5 -11.5t74.5 -35.5t47.5 -61.5t16.5 -89.5v-339 h-174v61q-19 -29 -55.5 -51t-99.5 -22zM266 109q38 0 63.5 20t25.5 54v32h-47q-54 0 -79 -12.5t-25 -44.5q0 -23 15 -36t47 -13zM131 749h180l53 -166h-128z" glyph-name="agrave" horiz-adv-x="586" unicode="à"/>
<glyph d="M204 -12q-35 0 -67 9t-56 28q-25 19 -39.5 48.5t-14.5 71.5q0 92 73.5 131.5t204.5 39.5h50v12q0 38 -13 60.5t-56 22.5q-37 0 -52.5 -18.5t-18.5 -43.5h-168q3 47 22.5 82.5t52.5 59.5q32 23 76.5 34.5t98.5 11.5t97.5 -11.5t74.5 -35.5t47.5 -61.5t16.5 -89.5v-339 h-174v61q-19 -29 -55.5 -51t-99.5 -22zM266 109q38 0 63.5 20t25.5 54v32h-47q-54 0 -79 -12.5t-25 -44.5q0 -23 15 -36t47 -13zM279 749h180l-105 -166h-128z" glyph-name="aacute" horiz-adv-x="586" unicode="á"/>
<glyph d="M204 -12q-35 0 -67 9t-56 28q-25 19 -39.5 48.5t-14.5 71.5q0 92 73.5 131.5t204.5 39.5h50v12q0 38 -13 60.5t-56 22.5q-37 0 -52.5 -18.5t-18.5 -43.5h-168q3 47 22.5 82.5t52.5 59.5q32 23 76.5 34.5t98.5 11.5t97.5 -11.5t74.5 -35.5t47.5 -61.5t16.5 -89.5v-339 h-174v61q-19 -29 -55.5 -51t-99.5 -22zM266 109q38 0 63.5 20t25.5 54v32h-47q-54 0 -79 -12.5t-25 -44.5q0 -23 15 -36t47 -13zM229 748h128l118 -163h-125l-61 56l-60 -56h-123z" glyph-name="acircumflex" horiz-adv-x="586" unicode="â"/>
<glyph d="M204 -12q-35 0 -67 9t-56 28q-25 19 -39.5 48.5t-14.5 71.5q0 92 73.5 131.5t204.5 39.5h50v12q0 38 -13 60.5t-56 22.5q-37 0 -52.5 -18.5t-18.5 -43.5h-168q3 47 22.5 82.5t52.5 59.5q32 23 76.5 34.5t98.5 11.5t97.5 -11.5t74.5 -35.5t47.5 -61.5t16.5 -89.5v-339 h-174v61q-19 -29 -55.5 -51t-99.5 -22zM266 109q38 0 63.5 20t25.5 54v32h-47q-54 0 -79 -12.5t-25 -44.5q0 -23 15 -36t47 -13zM359 587q-21 0 -37.5 5t-30.5 12q-14 6 -25.5 11t-23.5 5t-20.5 -9t-10.5 -23h-97q5 79 36.5 117.5t78.5 38.5q20 0 36.5 -5.5t31.5 -11.5 q14 -6 26.5 -11.5t24.5 -5.5q14 0 21.5 9t10.5 23h97q-6 -78 -39.5 -116.5t-78.5 -38.5z" glyph-name="atilde" horiz-adv-x="586" unicode="ã"/>
<glyph d="M204 -12q-35 0 -67 9t-56 28q-25 19 -39.5 48.5t-14.5 71.5q0 92 73.5 131.5t204.5 39.5h50v12q0 38 -13 60.5t-56 22.5q-37 0 -52.5 -18.5t-18.5 -43.5h-168q3 47 22.5 82.5t52.5 59.5q32 23 76.5 34.5t98.5 11.5t97.5 -11.5t74.5 -35.5t47.5 -61.5t16.5 -89.5v-339 h-174v61q-19 -29 -55.5 -51t-99.5 -22zM266 109q38 0 63.5 20t25.5 54v32h-47q-54 0 -79 -12.5t-25 -44.5q0 -23 15 -36t47 -13zM188 580q-18 0 -33.5 6.5t-26.5 17.5q-12 11 -18.5 26.5t-6.5 32.5t6.5 32.5t18.5 27.5q11 11 26.5 17.5t33.5 6.5q36 0 61 -24.5t25 -59.5 t-25 -59t-61 -24zM401 580q-36 0 -60.5 24t-24.5 59t24.5 59.5t60.5 24.5t61 -24.5t25 -59.5t-25 -59t-61 -24z" glyph-name="adieresis" horiz-adv-x="586" unicode="ä"/>
<glyph d="M204 -12q-35 0 -67 9t-56 28q-25 19 -39.5 48.5t-14.5 71.5q0 92 73.5 131.5t204.5 39.5h50v12q0 38 -13 60.5t-56 22.5q-37 0 -52.5 -18.5t-18.5 -43.5h-168q3 47 22.5 82.5t52.5 59.5q32 23 76.5 34.5t98.5 11.5t97.5 -11.5t74.5 -35.5t47.5 -61.5t16.5 -89.5v-339 h-174v61q-19 -29 -55.5 -51t-99.5 -22zM266 109q38 0 63.5 20t25.5 54v32h-47q-54 0 -79 -12.5t-25 -44.5q0 -23 15 -36t47 -13zM295 642q20 0 33 14t13 36q0 23 -13 37t-33 14t-33 -14t-13 -37q0 -22 13 -36t33 -14zM295 578q-24 0 -45.5 9t-37.5 25q-16 15 -25.5 35.5 t-9.5 44.5t9.5 44.5t25.5 36.5t37.5 25t45.5 9t45.5 -9t37.5 -25t25.5 -36.5t9.5 -44.5t-9.5 -44.5t-25.5 -35.5q-16 -16 -37.5 -25t-45.5 -9z" glyph-name="aring" horiz-adv-x="586" unicode="å"/>
<glyph d="M631 -12q-70 0 -121 23t-82 68q-32 -43 -81 -67t-126 -24q-40 0 -75 9t-61 28q-27 19 -42.5 48.5t-15.5 71.5q0 92 73 133t204 40h53v9q0 39 -14 61.5t-56 22.5q-37 0 -52.5 -17.5t-19.5 -44.5h-168q3 47 22.5 82.5t51.5 59.5q32 23 75 34.5t94 11.5q60 0 102.5 -15.5 t66.5 -46.5q33 31 74.5 46.5t92.5 15.5q53 0 100.5 -15.5t83.5 -48.5t57 -85t21 -122v-46h-360q4 -53 30 -81t74 -28q44 0 64 18t25 44h167q-12 -89 -77 -137t-180 -48zM715 318q-3 51 -25 76t-64 25q-40 0 -66 -26t-31 -75h186zM267 109q42 0 66 20t24 54v34h-50 q-51 1 -77 -10.5t-26 -44.5q0 -26 16 -39.5t47 -13.5z" glyph-name="ae" horiz-adv-x="916" unicode="æ"/>
<glyph d="M285 -226q-54 0 -87 24t-40 69h84q3 -11 11 -19.5t25 -8.5q15 0 23.5 8.5t8.5 21.5q0 14 -8.5 22.5t-24.5 8.5q-12 0 -19.5 -3.5t-12.5 -7.5l-39 38l43 65q-48 7 -88.5 27t-69.5 53t-45.5 79t-16.5 104v8q0 65 22 116t60 86t88.5 53.5t108.5 18.5q48 0 92.5 -11t79.5 -36 q35 -26 57.5 -67t26.5 -101h-168q-6 37 -25.5 56.5t-58.5 19.5q-48 0 -74 -33.5t-26 -99.5v-8q0 -69 26 -103.5t77 -34.5q38 0 62 22t29 65h161q-4 -97 -66 -155.5t-183 -62.5l-23 -33q22 2 42 -2t36 -15q15 -10 24 -27.5t9 -41.5q0 -45 -33 -70t-88 -25z" glyph-name="ccedilla" horiz-adv-x="591" unicode="ç"/>
<glyph d="M313 -12q-62 0 -114 17.5t-89 51.5q-38 34 -59.5 84t-21.5 114v8q0 63 22 113.5t60 86.5t90 55t111 19q54 0 102 -16t85 -49q36 -33 57.5 -84t21.5 -121v-47h-368q4 -52 32.5 -80.5t76.5 -28.5q45 0 65.5 18t25.5 44h168q-12 -89 -79 -137t-186 -48zM404 321 q-2 48 -25 73t-67 25q-41 0 -67 -25t-33 -73h192zM143 749h180l53 -166h-128z" glyph-name="egrave" horiz-adv-x="606" unicode="è"/>
<glyph d="M313 -12q-62 0 -114 17.5t-89 51.5q-38 34 -59.5 84t-21.5 114v8q0 63 22 113.5t60 86.5t90 55t111 19q54 0 102 -16t85 -49q36 -33 57.5 -84t21.5 -121v-47h-368q4 -52 32.5 -80.5t76.5 -28.5q45 0 65.5 18t25.5 44h168q-12 -89 -79 -137t-186 -48zM404 321 q-2 48 -25 73t-67 25q-41 0 -67 -25t-33 -73h192zM291 749h180l-105 -166h-128z" glyph-name="eacute" horiz-adv-x="606" unicode="é"/>
<glyph d="M313 -12q-62 0 -114 17.5t-89 51.5q-38 34 -59.5 84t-21.5 114v8q0 63 22 113.5t60 86.5t90 55t111 19q54 0 102 -16t85 -49q36 -33 57.5 -84t21.5 -121v-47h-368q4 -52 32.5 -80.5t76.5 -28.5q45 0 65.5 18t25.5 44h168q-12 -89 -79 -137t-186 -48zM404 321 q-2 48 -25 73t-67 25q-41 0 -67 -25t-33 -73h192zM245 748h128l118 -163h-125l-61 56l-60 -56h-123z" glyph-name="ecircumflex" horiz-adv-x="606" unicode="ê"/>
<glyph d="M313 -12q-62 0 -114 17.5t-89 51.5q-38 34 -59.5 84t-21.5 114v8q0 63 22 113.5t60 86.5t90 55t111 19q54 0 102 -16t85 -49q36 -33 57.5 -84t21.5 -121v-47h-368q4 -52 32.5 -80.5t76.5 -28.5q45 0 65.5 18t25.5 44h168q-12 -89 -79 -137t-186 -48zM404 321 q-2 48 -25 73t-67 25q-41 0 -67 -25t-33 -73h192zM200 580q-18 0 -33.5 6.5t-26.5 17.5q-12 11 -18.5 26.5t-6.5 32.5t6.5 32.5t18.5 27.5q11 11 26.5 17.5t33.5 6.5q36 0 61 -24.5t25 -59.5t-25 -59t-61 -24zM413 580q-36 0 -60.5 24t-24.5 59t24.5 59.5t60.5 24.5 t61 -24.5t25 -59.5t-25 -59t-61 -24z" glyph-name="edieresis" horiz-adv-x="606" unicode="ë"/>
<glyph d="M62 523h179v-523h-179v523zM-12 749h180l53 -166h-128z" glyph-name="igrave" horiz-adv-x="303" unicode="ì"/>
<glyph d="M62 523h179v-523h-179v523zM136 749h180l-105 -166h-128z" glyph-name="iacute" horiz-adv-x="303" unicode="í"/>
<glyph d="M62 523h179v-523h-179v523zM90 748h128l118 -163h-125l-61 56l-60 -56h-123z" glyph-name="icircumflex" horiz-adv-x="303" unicode="î"/>
<glyph d="M46 580q-18 0 -33.5 6.5t-27.5 17.5q-11 11 -17.5 26.5t-6.5 32.5t6.5 32.5t17.5 27.5q12 11 27.5 17.5t33.5 6.5q36 0 61 -24.5t25 -59.5t-25 -59t-61 -24zM256 580q-18 0 -33.5 6.5t-26.5 17.5q-12 11 -18.5 26.5t-6.5 32.5t6.5 32.5t18.5 27.5q11 11 26.5 17.5 t33.5 6.5q36 0 61 -24.5t25 -59.5t-25 -59t-61 -24zM62 523h179v-523h-179v523z" glyph-name="idieresis" horiz-adv-x="303" unicode="ï"/>
<glyph d="M121 618l109 40q-31 27 -61.5 51t-58.5 44h198q14 -9 30 -19.5t33 -22.5l106 39l24 -63l-70 -26q33 -31 63.5 -68.5t54.5 -82.5t38 -96t14 -109v-22q0 -69 -21 -123.5t-59 -92.5t-91 -58.5t-118 -20.5q-60 0 -112 18.5t-90 53.5t-59.5 86.5t-21.5 116.5v11q0 60 20 107.5 t53 80.5q33 32 75 49.5t86 17.5q38 0 61.5 -10t46.5 -34q-15 32 -37.5 62.5t-49.5 59.5l-139 -51zM316 121q51 0 77 35.5t26 101.5v8q0 66 -26 101.5t-77 35.5q-50 0 -77 -34.5t-27 -100.5v-8q0 -68 26 -103.5t78 -35.5z" glyph-name="eth" horiz-adv-x="631" unicode="ð"/>
<glyph d="M57 523h179v-84q21 41 63.5 69.5t108.5 28.5q76 0 123.5 -48.5t47.5 -148.5v-340h-179v304q0 45 -18 66.5t-57 21.5q-40 0 -64.5 -24t-24.5 -75v-293h-179v523zM381 587q-21 0 -37.5 5t-30.5 12q-14 6 -25.5 11t-23.5 5t-20.5 -9t-10.5 -23h-97q5 79 36.5 117.5 t78.5 38.5q20 0 36.5 -5.5t31.5 -11.5q14 -6 26.5 -11.5t24.5 -5.5q14 0 21.5 9t10.5 23h97q-6 -78 -39.5 -116.5t-78.5 -38.5z" glyph-name="ntilde" horiz-adv-x="632" unicode="ñ"/>
<glyph d="M316 121q51 0 77 35.5t26 101.5v8q0 66 -26 101.5t-77 35.5t-77.5 -34.5t-26.5 -100.5v-8q0 -68 26 -103.5t78 -35.5zM315 -12q-60 0 -112.5 18t-90.5 52q-39 34 -61 84t-22 113v8q0 63 22 113.5t61 86.5q38 36 90.5 55t113.5 19q60 0 112.5 -18.5t90.5 -53.5t60 -85 t22 -112v-8q0 -64 -22 -114.5t-60 -85.5q-39 -35 -91.5 -53.5t-112.5 -18.5zM151 749h180l53 -166h-128z" glyph-name="ograve" horiz-adv-x="630" unicode="ò"/>
<glyph d="M316 121q51 0 77 35.5t26 101.5v8q0 66 -26 101.5t-77 35.5t-77.5 -34.5t-26.5 -100.5v-8q0 -68 26 -103.5t78 -35.5zM315 -12q-60 0 -112.5 18t-90.5 52q-39 34 -61 84t-22 113v8q0 63 22 113.5t61 86.5q38 36 90.5 55t113.5 19q60 0 112.5 -18.5t90.5 -53.5t60 -85 t22 -112v-8q0 -64 -22 -114.5t-60 -85.5q-39 -35 -91.5 -53.5t-112.5 -18.5zM299 749h180l-105 -166h-128z" glyph-name="oacute" horiz-adv-x="630" unicode="ó"/>
<glyph d="M316 121q51 0 77 35.5t26 101.5v8q0 66 -26 101.5t-77 35.5t-77.5 -34.5t-26.5 -100.5v-8q0 -68 26 -103.5t78 -35.5zM315 -12q-60 0 -112.5 18t-90.5 52q-39 34 -61 84t-22 113v8q0 63 22 113.5t61 86.5q38 36 90.5 55t113.5 19q60 0 112.5 -18.5t90.5 -53.5t60 -85 t22 -112v-8q0 -64 -22 -114.5t-60 -85.5q-39 -35 -91.5 -53.5t-112.5 -18.5zM253 748h128l118 -163h-125l-61 56l-60 -56h-123z" glyph-name="ocircumflex" horiz-adv-x="630" unicode="ô"/>
<glyph d="M316 121q51 0 77 35.5t26 101.5v8q0 66 -26 101.5t-77 35.5t-77.5 -34.5t-26.5 -100.5v-8q0 -68 26 -103.5t78 -35.5zM315 -12q-60 0 -112.5 18t-90.5 52q-39 34 -61 84t-22 113v8q0 63 22 113.5t61 86.5q38 36 90.5 55t113.5 19q60 0 112.5 -18.5t90.5 -53.5t60 -85 t22 -112v-8q0 -64 -22 -114.5t-60 -85.5q-39 -35 -91.5 -53.5t-112.5 -18.5zM379 587q-21 0 -37.5 5t-30.5 12q-14 6 -25.5 11t-23.5 5t-20.5 -9t-10.5 -23h-97q5 79 36.5 117.5t78.5 38.5q20 0 36.5 -5.5t31.5 -11.5q14 -6 26.5 -11.5t24.5 -5.5q14 0 21.5 9t10.5 23h97 q-6 -78 -39.5 -116.5t-78.5 -38.5z" glyph-name="otilde" horiz-adv-x="630" unicode="õ"/>
<glyph d="M316 121q51 0 77 35.5t26 101.5v8q0 66 -26 101.5t-77 35.5t-77.5 -34.5t-26.5 -100.5v-8q0 -68 26 -103.5t78 -35.5zM315 -12q-60 0 -112.5 18t-90.5 52q-39 34 -61 84t-22 113v8q0 63 22 113.5t61 86.5q38 36 90.5 55t113.5 19q60 0 112.5 -18.5t90.5 -53.5t60 -85 t22 -112v-8q0 -64 -22 -114.5t-60 -85.5q-39 -35 -91.5 -53.5t-112.5 -18.5zM208 580q-18 0 -33.5 6.5t-26.5 17.5q-12 11 -18.5 26.5t-6.5 32.5t6.5 32.5t18.5 27.5q11 11 26.5 17.5t33.5 6.5q36 0 61 -24.5t25 -59.5t-25 -59t-61 -24zM421 580q-36 0 -60.5 24t-24.5 59 t24.5 59.5t60.5 24.5t61 -24.5t25 -59.5t-25 -59t-61 -24z" glyph-name="odieresis" horiz-adv-x="630" unicode="ö"/>
<glyph d="M290 43q-39 0 -66.5 26.5t-27.5 65.5q0 19 7.5 36t20.5 30q12 12 29 19.5t37 7.5q19 0 36.5 -7.5t30.5 -19.5q12 -13 19.5 -30t7.5 -36q0 -39 -27.5 -65.5t-66.5 -26.5zM41 402h498v-124h-498v124zM290 452q-20 0 -37 7.5t-29 20.5q-13 12 -20.5 29t-7.5 36 q0 39 27.5 65.5t66.5 26.5t66.5 -26.5t27.5 -65.5q0 -19 -7.5 -36t-19.5 -29q-13 -13 -30.5 -20.5t-36.5 -7.5z" glyph-name="divide" horiz-adv-x="580" unicode="÷"/>
<glyph d="M25 9l66 70q-29 33 -45.5 77t-16.5 99v8q0 63 22 113.5t61 86.5q38 36 90.5 55t113.5 19q46 0 87 -10.5t76 -32.5l65 69l52 -48l-62 -66q32 -35 49.5 -80t17.5 -101v-8q0 -64 -22 -114.5t-60 -85.5q-39 -35 -91.5 -53.5t-112.5 -18.5q-49 0 -92 11.5t-78 33.5l-68 -72z M316 120q52 0 78.5 36t26.5 102v8q0 16 -1.5 29.5t-4.5 25.5l-167 -178q13 -11 30 -17t38 -6zM210 260q0 -14 1 -26t3 -23l163 174q-11 10 -26.5 14.5t-34.5 4.5q-51 0 -78.5 -34.5t-27.5 -101.5v-8z" glyph-name="oslash" horiz-adv-x="630" unicode="ø"/>
<glyph d="M229 -12q-38 0 -70 11.5t-55 35.5q-24 24 -37.5 60.5t-13.5 86.5v341h179v-312q0 -44 18.5 -66t55.5 -22q41 0 65 24t24 75v301h179v-523h-179v81q-21 -41 -60.5 -67t-105.5 -26zM150 749h180l53 -166h-128z" glyph-name="ugrave" horiz-adv-x="631" unicode="ù"/>
<glyph d="M229 -12q-38 0 -70 11.5t-55 35.5q-24 24 -37.5 60.5t-13.5 86.5v341h179v-312q0 -44 18.5 -66t55.5 -22q41 0 65 24t24 75v301h179v-523h-179v81q-21 -41 -60.5 -67t-105.5 -26zM298 749h180l-105 -166h-128z" glyph-name="uacute" horiz-adv-x="631" unicode="ú"/>
<glyph d="M229 -12q-38 0 -70 11.5t-55 35.5q-24 24 -37.5 60.5t-13.5 86.5v341h179v-312q0 -44 18.5 -66t55.5 -22q41 0 65 24t24 75v301h179v-523h-179v81q-21 -41 -60.5 -67t-105.5 -26zM252 748h128l118 -163h-125l-61 56l-60 -56h-123z" glyph-name="ucircumflex" horiz-adv-x="631" unicode="û"/>
<glyph d="M229 -12q-38 0 -70 11.5t-55 35.5q-24 24 -37.5 60.5t-13.5 86.5v341h179v-312q0 -44 18.5 -66t55.5 -22q41 0 65 24t24 75v301h179v-523h-179v81q-21 -41 -60.5 -67t-105.5 -26zM207 580q-18 0 -33.5 6.5t-26.5 17.5q-12 11 -18.5 26.5t-6.5 32.5t6.5 32.5t18.5 27.5 q11 11 26.5 17.5t33.5 6.5q36 0 61 -24.5t25 -59.5t-25 -59t-61 -24zM420 580q-36 0 -60.5 24t-24.5 59t24.5 59.5t60.5 24.5t61 -24.5t25 -59.5t-25 -59t-61 -24z" glyph-name="udieresis" horiz-adv-x="631" unicode="ü"/>
<glyph d="M221 53l-209 470h194l108 -279l100 279h171l-280 -698h-171zM293 749h180l-105 -166h-128z" glyph-name="yacute" horiz-adv-x="597" unicode="ý"/>
<glyph d="M57 753h179v-308q23 38 63 65t100 27q46 0 86 -17t70 -51t47.5 -85t17.5 -118v-8q0 -68 -17.5 -118.5t-47.5 -83.5q-30 -34 -70.5 -51t-86.5 -17q-60 0 -101 25t-61 64v-252h-179v928zM335 125q51 0 77 34t26 99v8q0 69 -27.5 102.5t-75.5 33.5q-49 0 -76.5 -34.5 t-27.5 -100.5v-8q0 -67 27.5 -100.5t76.5 -33.5z" glyph-name="thorn" horiz-adv-x="651" unicode="þ"/>
<glyph d="M62 523h179v-523h-179v523z" glyph-name="dotlessi" horiz-adv-x="303" unicode="ı"/>
<glyph d="M142 748h128l118 -163h-125l-61 56l-60 -56h-123z" glyph-name="circumflex" unicode="ˆ"/>
<glyph d="M204 642q20 0 33 14t13 36q0 23 -13 37t-33 14t-33 -14t-13 -37q0 -22 13 -36t33 -14zM204 578q-24 0 -45.5 9t-37.5 25q-16 15 -25.5 35.5t-9.5 44.5t9.5 44.5t25.5 36.5t37.5 25t45.5 9t45.5 -9t37.5 -25t25.5 -36.5t9.5 -44.5t-9.5 -44.5t-25.5 -35.5 q-16 -16 -37.5 -25t-45.5 -9z" glyph-name="ring" unicode="˚"/>
<glyph d="M268 587q-21 0 -37.5 5t-30.5 12q-14 6 -25.5 11t-23.5 5t-20.5 -9t-10.5 -23h-97q5 79 36.5 117.5t78.5 38.5q20 0 36.5 -5.5t31.5 -11.5q14 -6 26.5 -11.5t24.5 -5.5q14 0 21.5 9t10.5 23h97q-6 -78 -39.5 -116.5t-78.5 -38.5z" glyph-name="tilde" unicode="˜"/>
<glyph d="M47 905h186l49 -146h-135z" glyph-name="grave.uc"/>
<glyph d="M92 758q-18 0 -33.5 6.5t-26.5 17.5q-12 11 -18.5 26.5t-6.5 32.5q0 35 25 59.5t60 24.5q36 0 61 -24.5t25 -59.5t-25 -59t-61 -24zM315 758q-36 0 -60.5 24t-24.5 59t24.5 59.5t60.5 24.5t61 -24.5t25 -59.5t-25 -59t-61 -24z" glyph-name="dieresis.uc"/>
<glyph d="M177 905h187l-103 -146h-135z" glyph-name="acute.uc"/>
<glyph d="M131 905h150l110 -146h-130l-59 49l-58 -49h-127z" glyph-name="circumflex.uc"/>
<glyph d="M204 810q20 0 33 14t13 36q0 23 -13 36.5t-33 13.5q-21 0 -33.5 -13.5t-12.5 -36.5q0 -22 12.5 -36t33.5 -14zM204 744q-25 0 -46.5 9.5t-37.5 25.5q-17 15 -26.5 36t-9.5 45t9.5 45t26.5 37q16 16 37.5 25t46.5 9t46.5 -9t38.5 -25q16 -16 25.5 -37t9.5 -45t-9.5 -45 t-25.5 -36q-17 -16 -38.5 -25.5t-46.5 -9.5z" glyph-name="ring.uc"/>
<glyph d="M269 758q-21 0 -38.5 5.5t-31.5 11.5t-26 11.5t-24 5.5t-20.5 -9.5t-10.5 -23.5h-102q3 39 13.5 68t27.5 48q16 19 37 28t44 9q20 0 37 -5t32 -11q14 -7 27 -12t25 -5q14 0 21.5 9t10.5 23h101q-3 -39 -14 -68t-27 -48q-17 -19 -38.5 -28t-43.5 -9z" glyph-name="tilde.uc"/>
</font>
</defs>
</svg>
