<?xml version="1.0" encoding="UTF-8"?>
<!DOCTYPE svg  PUBLIC '-//W3C//DTD SVG 1.1//EN'  'http://www.w3.org/Graphics/SVG/1.1/DTD/svg11.dtd'>
<svg version="1.1" xmlns="http://www.w3.org/2000/svg">
<defs>
<font id="Graphik-Extralight" horiz-adv-x="400">
<font-face font-family="Graphik Extralight" font-weight="200" ascent="818" bbox="-27 -211 896 932" cap-height="715" descent="-182" panose-1="2 11 3 3 3 2 2 6 2 3" underline-position="-117" underline-thickness="50" unicode-range="U+0020-02DC" units-per-em="1000" x-height="523"/>
<missing-glyph/>
<glyph glyph-name="space" horiz-adv-x="235" unicode=" "/>
<glyph d="M131 -5q-12 0 -20.5 8.5t-8.5 20.5t8.5 20.5t20.5 8.5t20.5 -8.5t8.5 -20.5t-8.5 -20.5t-20.5 -8.5zM113 715h38l-5 -550h-28z" glyph-name="exclam" horiz-adv-x="262" unicode="!"/>
<glyph d="M57 715h37l-5 -186h-27zM167 715h38l-6 -186h-27z" glyph-name="quotedbl" horiz-adv-x="261" unicode='"'/>
<glyph d="M292 303h-136l-29 -204h-30l30 204h-95v30h99l25 172h-96v30h101l26 180h30l-27 -180h136l26 180h30l-27 -180h97v-30h-101l-25 -172h98v-30h-103l-29 -204h-30zM161 333h135l25 172h-135z" glyph-name="numbersign" horiz-adv-x="484" unicode="#"/>
<glyph d="M280 -6q-58 3 -100.5 19.5t-71 43.5t-45 63t-21.5 77h35q5 -33 18 -63.5t37 -54t60.5 -38.5t87.5 -18v337q-111 19 -161.5 61t-50.5 119q0 40 15.5 73t43.5 56.5t67 37t86 15.5v91h31v-92q88 -5 140 -49t64 -119h-34q-12 63 -53.5 98.5t-116.5 39.5v-304 q58 -9 100.5 -22.5t70.5 -36t41.5 -56t13.5 -82.5q0 -40 -15.5 -75.5t-44.5 -62t-71 -42.5t-95 -17v-128h-31v129zM502 189q0 40 -10.5 68t-33.5 47.5t-59 31.5t-88 20v-333q45 1 80.5 14t60 35.5t37.5 52t13 64.5zM102 542q0 -30 9 -54t29.5 -42t54.5 -31.5t85 -22.5v300 q-82 -3 -130 -41.5t-48 -108.5z" glyph-name="dollar" horiz-adv-x="593" unicode="$"/>
<glyph d="M196 435q24 0 46 8.5t38 25t25.5 40.5t9.5 54q0 60 -34 94t-85 34q-24 0 -45.5 -9t-38 -25.5t-26 -40.5t-9.5 -54t9.5 -53.5t26 -40t38 -25t45.5 -8.5zM196 407q-29 0 -56.5 11t-48.5 31t-33.5 48.5t-12.5 63.5q0 36 12.5 65t33 50t48 32.5t57.5 11.5q31 0 58.5 -11.5 t48.5 -32t33 -49.5t12 -64q0 -36 -12.5 -65t-33.5 -49t-48.5 -31t-57.5 -11zM593 715h34l-467 -715h-34zM557 23q49 0 84 33t35 95q0 60 -34 94t-85 34q-24 0 -45.5 -9t-38 -25.5t-26 -41t-9.5 -54.5t9.5 -53.5t26 -39.5t38 -24.5t45.5 -8.5zM557 -6q-29 0 -56.5 11 t-48.5 31t-33.5 48.5t-12.5 64.5q0 35 12.5 64t33 50t48 32.5t57.5 11.5q31 0 58.5 -11.5t48.5 -32t33 -49.5t12 -63q0 -36 -12.5 -65.5t-33.5 -49.5t-48.5 -31t-57.5 -11z" glyph-name="percent" horiz-adv-x="755" unicode="%"/>
<glyph d="M490 147l127 -147h-43l-103 119q-17 -24 -38 -46.5t-48 -40.5t-59.5 -28.5t-72.5 -10.5q-48 0 -86.5 14.5t-65 40t-40.5 60.5t-14 77t15.5 74.5t41 59t57.5 47t66 37.5q-38 45 -58.5 83t-20.5 83q0 33 12 60.5t32.5 47.5t48.5 31t60 11q33 0 59 -11t44.5 -30.5 t28.5 -45.5t10 -55q0 -32 -12.5 -58.5t-35 -48.5t-53 -40.5t-65.5 -34.5l193 -223l102 185h34zM254 23q34 0 63 9.5t53 26t44 38.5t36 46l-205 239q-31 -15 -60 -33.5t-51.5 -42.5t-36.5 -53.5t-14 -65.5t11 -66t33 -51.5t54 -34t73 -12.5zM182 568q0 -40 20.5 -75t57.5 -78 q32 15 59.5 32t47.5 36.5t31.5 42.5t11.5 51q0 50 -29.5 81.5t-80.5 31.5t-84.5 -33.5t-33.5 -88.5z" glyph-name="ampersand" horiz-adv-x="649" unicode="&amp;"/>
<glyph d="M57 715h37l-5 -186h-27z" glyph-name="quotesingle" horiz-adv-x="151" unicode="'"/>
<glyph d="M221 -148q-34 40 -64 89t-52 106.5t-35 123.5t-13 141t13 141t35 123.5t52 106.5t64 90h35q-34 -42 -63.5 -90.5t-52 -105.5t-35.5 -123t-13 -142q0 -77 13 -142.5t35.5 -122t52 -105t63.5 -90.5h-35v0z" glyph-name="parenleft" horiz-adv-x="285" unicode="("/>
<glyph d="M29 -147q34 42 63.5 90.5t52 105t35.5 122t13 142.5q0 76 -13 142t-35.5 123t-52 105.5t-63.5 90.5h35q34 -41 64 -90t52.5 -106.5t35.5 -123.5t13 -141t-13 -141t-35.5 -123.5t-52.5 -106.5t-64 -89h-35v0z" glyph-name="parenright" horiz-adv-x="285" unicode=")"/>
<glyph d="M91 451l96 121l-138 46l10 29l135 -52l-2 148h32l-2 -148l134 52l10 -29l-138 -46l95 -121l-26 -19l-90 123l-90 -123z" glyph-name="asterisk" horiz-adv-x="415" unicode="*"/>
<glyph d="M237 327h-200v30h200v215h31v-215h200v-30h-200v-214h-31v214z" glyph-name="plus" horiz-adv-x="505" unicode="+"/>
<glyph d="M31 -101l65 160l35 -15l-75 -157z" glyph-name="comma" horiz-adv-x="195" unicode=","/>
<glyph d="M63 295h207v-33h-207v33z" glyph-name="hyphen" horiz-adv-x="333" unicode="-"/>
<glyph d="M98 -5q-13 0 -21 8.5t-8 20.5t8 20.5t21 8.5q12 0 20 -8.5t8 -20.5t-8 -20.5t-20 -8.5z" glyph-name="period" horiz-adv-x="195" unicode="."/>
<glyph d="M308 776h34l-291 -924h-34z" glyph-name="slash" horiz-adv-x="383" unicode="/"/>
<glyph d="M324 24q114 0 172.5 76t58.5 224v73q0 68 -16 122.5t-46 93t-73.5 59t-98.5 20.5q-110 0 -170 -77.5t-60 -220.5v-73q0 -148 62 -222.5t171 -74.5zM324 -7q-128 0 -198.5 85.5t-70.5 242.5v73q0 156 70 242t196 86q62 0 112 -22.5t85 -64.5t54 -102.5t19 -136.5v-73 q0 -157 -68.5 -243.5t-198.5 -86.5z" glyph-name="zero" horiz-adv-x="646" unicode="0"/>
<glyph d="M189 674l-165 -113v34l174 120h27v-715h-36v674z" glyph-name="one" horiz-adv-x="348" unicode="1"/>
<glyph d="M21 9l289 295q61 62 89 115.5t28 112.5q0 80 -46.5 120t-120.5 40t-123 -43.5t-60 -133.5h-34q4 49 22 88t46.5 65t66.5 40t82 14t81 -12.5t64 -36.5t42.5 -60t15.5 -82q0 -65 -32.5 -124t-97.5 -124l-253 -252h397v-31h-456v9z" glyph-name="two" horiz-adv-x="527" unicode="2"/>
<glyph d="M268 -7q-54 0 -96.5 16.5t-72.5 44.5t-46 65t-18 77h33q3 -35 17 -66t38.5 -54.5t60.5 -37.5t84 -14q88 0 138.5 44t50.5 129q0 34 -10.5 64t-31.5 51.5t-53.5 34t-76.5 12.5h-50v31h47q41 0 69.5 12t46.5 32.5t26.5 46.5t8.5 54q0 33 -10 61.5t-30 49.5t-49.5 33 t-67.5 12q-39 0 -71 -12t-55 -33.5t-37 -50.5t-18 -62h-32q3 40 19.5 74.5t44.5 60t66 40t83 14.5t81 -14.5t61 -40t38 -59t13 -72.5q0 -58 -32.5 -101.5t-87.5 -57.5q64 -13 104.5 -59t40.5 -121q0 -48 -16.5 -86t-46.5 -64.5t-71.5 -40t-91.5 -13.5z" glyph-name="three" horiz-adv-x="544" unicode="3"/>
<glyph d="M405 167h-375v11l357 537h54v-517h99v-31h-99v-167h-36v167zM405 198v492l-325 -492h325z" glyph-name="four" horiz-adv-x="581" unicode="4"/>
<glyph d="M260 -7q-52 0 -92.5 15.5t-68.5 41t-44 59t-19 69.5h34q4 -30 17.5 -58t36.5 -49t57 -34t79 -13q94 0 146 55.5t52 150.5q0 45 -14.5 82t-39 63.5t-58.5 40.5t-73 14q-68 0 -112 -24.5t-71 -58.5h-14v368h382v-31h-351v-289q23 24 66.5 45t103.5 21q45 0 85 -16t69.5 -46 t46.5 -73t17 -96q0 -55 -17 -99t-48 -74.5t-74.5 -47t-95.5 -16.5z" glyph-name="five" horiz-adv-x="545" unicode="5"/>
<glyph d="M304 -7q-64 0 -110 22t-76 60t-44 90.5t-14 113.5v73q0 99 19.5 169.5t54.5 115t83.5 65t105.5 20.5q75 0 129 -37.5t66 -118.5h-34q-11 65 -52.5 95t-110.5 30q-50 0 -91 -17.5t-70.5 -56.5t-46.5 -102.5t-17 -154.5v-48q12 34 34.5 60t51 43t60.5 25.5t64 8.5 q57 0 101 -17.5t73.5 -47.5t44.5 -71.5t15 -89.5q0 -51 -17 -93t-48 -72.5t-74.5 -47.5t-96.5 -17zM304 23q46 0 83 14.5t63 41t40 63t14 80.5q0 89 -50.5 143t-150.5 54q-39 0 -75.5 -12.5t-64.5 -36.5t-44.5 -59t-16.5 -80q0 -39 11.5 -76.5t36 -67t63 -47t91.5 -17.5z " glyph-name="six" horiz-adv-x="588" unicode="6"/>
<glyph d="M428 685h-402v30h448v-7l-285 -708h-38z" glyph-name="seven" horiz-adv-x="491" unicode="7"/>
<glyph d="M285 -7q-47 0 -90 13t-75.5 38.5t-51.5 64t-19 88.5q0 38 13 69.5t36 55.5t54.5 40t68.5 24q-29 7 -54.5 20.5t-45 33.5t-30.5 46.5t-11 59.5q0 41 17 73.5t45.5 55.5t65.5 35t77 12t77 -12.5t65 -35t44.5 -55t16.5 -71.5q0 -34 -10.5 -60.5t-28.5 -47t-43 -34t-54 -20.5 q37 -8 67.5 -23.5t52.5 -39t34.5 -54.5t12.5 -70q0 -51 -18.5 -89.5t-50 -64.5t-74 -39t-91.5 -13zM285 24q43 0 79.5 11t63 33t41 55t14.5 77q0 41 -15.5 72.5t-42.5 53.5t-62.5 33t-75.5 11q-41 0 -77.5 -11.5t-64 -33.5t-44 -54t-16.5 -73q0 -44 16 -76.5t43 -54.5 t63.5 -32.5t77.5 -10.5zM288 400q34 0 64 9.5t52 28t35 46t13 64.5q0 31 -12.5 57.5t-35 46t-53 30t-66.5 10.5t-67 -10.5t-53.5 -29.5t-35 -46t-12.5 -60q0 -36 15 -63.5t39 -46t54.5 -27.5t62.5 -9z" glyph-name="eight" horiz-adv-x="568" unicode="8"/>
<glyph d="M276 -7q-81 0 -139 41t-74 122h35q14 -64 60 -98t118 -34q50 0 90 14t68 49.5t43 95t15 151.5v63q-12 -33 -34.5 -58t-51.5 -41t-61.5 -24t-65.5 -8q-56 0 -99.5 17t-72.5 47t-44 71.5t-15 90.5q0 52 17 94.5t47.5 72.5t74 46.5t96.5 16.5q64 0 110.5 -21.5t76.5 -59 t44 -89t14 -110.5v-105q0 -98 -17.5 -164t-50 -106t-79.5 -57t-105 -17zM282 295q40 0 77 12.5t65.5 36t45.5 57.5t17 77q0 40 -12 78.5t-36.5 68.5t-63 48.5t-92.5 18.5q-45 0 -82 -14.5t-63 -41t-40 -63t-14 -80.5t12.5 -80t37.5 -62.5t62 -41t86 -14.5z" glyph-name="nine" horiz-adv-x="586" unicode="9"/>
<glyph d="M101 -5q-12 0 -20.5 8.5t-8.5 20.5t8.5 20.5t20.5 8.5t20.5 -8.5t8.5 -20.5t-8.5 -20.5t-20.5 -8.5zM101 337q-12 0 -20.5 8.5t-8.5 20.5t8.5 20.5t20.5 8.5t20.5 -8.5t8.5 -20.5t-8.5 -20.5t-20.5 -8.5z" glyph-name="colon" horiz-adv-x="202" unicode=":"/>
<glyph d="M25 -101l65 160l35 -15l-75 -157zM103 337q-12 0 -20 8.5t-8 20.5t8 20.5t20 8.5q13 0 21 -8.5t8 -20.5t-8 -20.5t-21 -8.5z" glyph-name="semicolon" horiz-adv-x="202" unicode=";"/>
<glyph d="M49 317v10l384 207v-34l-332 -178l332 -178v-34z" glyph-name="less" horiz-adv-x="491" unicode="&lt;"/>
<glyph d="M40 254h404v-30h-404v30zM40 413h404v-30h-404v30z" glyph-name="equal" horiz-adv-x="484" unicode="="/>
<glyph d="M58 144l333 178l-333 178v34l384 -207v-10l-384 -207v34z" glyph-name="greater" horiz-adv-x="491" unicode="&gt;"/>
<glyph d="M193 227q0 29 7.5 52.5t20.5 43.5t31 39.5t40 41.5q19 19 36 36.5t29.5 36t20 40t7.5 48.5q0 56 -35.5 91.5t-109.5 35.5q-72 0 -117.5 -43t-50.5 -119h-34q3 44 18.5 79.5t42.5 60.5t63 38.5t79 13.5q45 0 78.5 -12t56 -33t33.5 -49.5t11 -61.5q0 -32 -8 -56.5 t-22.5 -44.5t-33.5 -39t-40 -41q-21 -21 -37.5 -39t-28.5 -36.5t-18.5 -39t-6.5 -46.5v-59h-32v62zM209 -5q-12 0 -20.5 8.5t-8.5 20.5t8.5 20.5t20.5 8.5t20.5 -8.5t8.5 -20.5t-8.5 -20.5t-20.5 -8.5z" glyph-name="question" horiz-adv-x="469" unicode="?"/>
<glyph d="M461 -147q-101 0 -178 34t-129.5 91t-79.5 131t-27 154q0 91 35 169t93.5 135t135 89t160.5 32q90 0 162 -28t123 -77.5t78.5 -116.5t27.5 -144q0 -68 -15 -115.5t-39.5 -77.5t-54.5 -43.5t-60 -13.5q-52 0 -81 28.5t-31 81.5q-8 -19 -22.5 -39.5t-34.5 -38t-45.5 -28.5 t-55.5 -11q-35 0 -64 12t-50 34.5t-32.5 54.5t-11.5 73q0 50 16 92.5t42.5 73.5t61.5 48.5t73 17.5q55 0 91 -32t45 -77l11 100h34l-27 -233q-8 -58 11 -93.5t71 -35.5q28 0 52.5 13.5t43 40.5t29 68.5t10.5 98.5q0 73 -24 135t-70 107t-112.5 70.5t-151.5 25.5 q-80 0 -151 -30t-124 -83t-84.5 -125t-31.5 -157q0 -75 24 -144t72 -122t119.5 -84.5t165.5 -31.5q55 0 100 9.5t81.5 25.5t64.5 37.5t48 45.5h34q-18 -29 -48.5 -55.5t-72.5 -47t-94 -32.5t-113 -12zM427 93q33 0 61.5 16t50 43.5t34 63.5t12.5 76q0 71 -34.5 110.5 t-91.5 39.5q-31 0 -59.5 -14.5t-50.5 -41.5t-35.5 -64.5t-13.5 -82.5q0 -69 35 -107.5t92 -38.5z" glyph-name="at" horiz-adv-x="905" unicode="@"/>
<glyph d="M296 715h48l266 -715h-36l-85 228h-339l-84 -228h-34zM161 258h317l-159 428z" glyph-name="A" horiz-adv-x="641" unicode="A"/>
<glyph d="M94 715h195q46 0 84 -10.5t65.5 -32.5t43 -56t15.5 -80v-4q0 -66 -35.5 -104.5t-95.5 -52.5q167 -26 167 -176v-4q0 -97 -57.5 -146t-156.5 -49h-225v715zM318 30q89 0 134.5 42.5t45.5 122.5v4q0 79 -51.5 119t-151.5 40h-166v-328h189zM291 387q84 0 127 38t43 108v4 q0 75 -45.5 111.5t-127.5 36.5h-159v-298h162z" glyph-name="B" horiz-adv-x="592" unicode="B"/>
<glyph d="M382 -7q-75 0 -136.5 26.5t-104.5 74t-66.5 113.5t-23.5 146v8q0 79 26 145.5t71 114.5t105 74.5t129 26.5q55 0 103 -14t86 -41.5t63.5 -68t34.5 -92.5h-36q-19 89 -83 137.5t-168 48.5q-63 0 -117 -24.5t-93 -68t-61.5 -104t-22.5 -133.5v-8q0 -75 21 -135.5t59 -104 t92.5 -67t122.5 -23.5q103 0 172.5 53t89.5 148h33q-10 -55 -36.5 -98t-65 -73t-88 -45.5t-106.5 -15.5z" glyph-name="C" horiz-adv-x="723" unicode="C"/>
<glyph d="M273 31q81 0 140.5 24.5t99.5 68t59.5 103t19.5 129.5v8q0 68 -19 127t-58.5 102t-100 67.5t-142.5 24.5h-142v-654h143zM94 715h183q87 0 152.5 -27t110 -74t67 -111t22.5 -139v-8q0 -74 -21.5 -139t-65 -113t-110.5 -76t-157 -28h-181v715z" glyph-name="D" horiz-adv-x="680" unicode="D"/>
<glyph d="M94 715h406v-30h-370v-301h301v-31h-301v-322h388v-31h-424v715z" glyph-name="E" horiz-adv-x="566" unicode="E"/>
<glyph d="M94 715h399v-30h-363v-304h287v-30h-287v-351h-36v715z" glyph-name="F" horiz-adv-x="537" unicode="F"/>
<glyph d="M393 -7q-80 0 -143.5 26.5t-107.5 74.5t-67.5 114t-23.5 145v8q0 79 26 145t71.5 114t107.5 75t133 27q51 0 97.5 -12t84.5 -37t64.5 -63.5t37.5 -90.5h-36q-22 90 -89 131.5t-158 41.5q-66 0 -121.5 -24.5t-95.5 -68t-62.5 -104.5t-22.5 -133v-8q0 -74 20.5 -135 t59.5 -104.5t95.5 -67t129.5 -23.5q132 0 200.5 73.5t69.5 205.5v7h-227v31h262v-33q0 -77 -22 -136t-61.5 -98.5t-96 -60t-125.5 -20.5z" glyph-name="G" horiz-adv-x="750" unicode="G"/>
<glyph d="M94 715h36v-339h449v339h36v-715h-36v345h-449v-345h-36v715z" glyph-name="H" horiz-adv-x="709" unicode="H"/>
<glyph d="M99 715h36v-715h-36v715z" glyph-name="I" horiz-adv-x="234" unicode="I"/>
<glyph d="M137 -5q-36 0 -61.5 6.5t-39.5 13.5v32q18 -8 42.5 -15t56.5 -7q64 0 100.5 34t36.5 114v542h36v-543q0 -47 -12.5 -80.5t-35 -55t-54 -31.5t-69.5 -10z" glyph-name="J" horiz-adv-x="389" unicode="J"/>
<glyph d="M135 364l365 351h42l-363 -348l381 -367h-45zM94 715h36v-715h-36v715z" glyph-name="K" horiz-adv-x="588" unicode="K"/>
<glyph d="M94 715h36v-684h360v-31h-396v715z" glyph-name="L" horiz-adv-x="528" unicode="L"/>
<glyph d="M94 715h53l272 -649l277 649h53v-715h-36v672l-288 -672h-14l-283 672v-672h-34v715z" glyph-name="M" horiz-adv-x="849" unicode="M"/>
<glyph d="M94 715h51l433 -667v667h35v-715h-44l-440 678v-678h-35v715z" glyph-name="N" horiz-adv-x="707" unicode="N"/>
<glyph d="M400 24q67 0 123 25.5t97 70t64 105t23 131.5v8q0 69 -23 128.5t-64 104t-97.5 70t-124.5 25.5t-125 -25.5t-98 -69.5t-64 -105t-23 -131v-8q0 -70 23.5 -130t65.5 -104.5t99 -69.5t124 -25zM400 -7q-75 0 -139 28t-110.5 77t-73 114.5t-26.5 140.5v8q0 76 26.5 142 t73.5 114.5t110 76.5t137 28t137 -27.5t109.5 -76t73 -114t26.5 -140.5v-8q0 -76 -26.5 -142t-72.5 -115t-109 -77.5t-136 -28.5z" glyph-name="O" horiz-adv-x="795" unicode="O"/>
<glyph d="M94 715h180q52 0 96 -10.5t76 -34t49.5 -60.5t17.5 -90v-4q0 -54 -17.5 -92t-48.5 -62.5t-75 -35.5t-96 -11h-147v-315h-35v715zM277 345q46 0 83.5 9.5t63 30t39.5 53t14 78.5v4q0 46 -14.5 78t-41.5 51t-64 27.5t-82 8.5h-146v-340h148z" glyph-name="P" horiz-adv-x="559" unicode="P"/>
<glyph d="M591 52q-41 -29 -89 -44t-102 -15q-75 0 -139 28t-110.5 77t-73 114.5t-26.5 140.5v8q0 76 26.5 142t73.5 114.5t110 76.5t137 28t137 -27.5t109.5 -76t73 -114t26.5 -140.5v-8q0 -88 -34 -161.5t-94 -123.5l87 -91l-22 -22zM400 24q48 0 91 13t78 38l-113 120l23 22 l116 -123q53 45 82.5 112.5t29.5 149.5v8q0 69 -23 128.5t-64 104t-97.5 70t-124.5 25.5t-125 -25.5t-98 -69.5t-64 -105t-23 -131v-8q0 -70 23.5 -130t65.5 -104.5t99 -69.5t124 -25z" glyph-name="Q" horiz-adv-x="795" unicode="Q"/>
<glyph d="M94 715h183q52 0 96 -10t76 -32.5t49.5 -58t17.5 -86.5v-4q0 -45 -14 -78t-39 -55.5t-60 -35.5t-77 -17l232 -338h-41l-230 335h-158v-335h-35v715zM278 365q93 0 147.5 36.5t54.5 122.5v4q0 44 -14.5 74t-41.5 48.5t-64 26.5t-82 8h-149v-320h149z" glyph-name="R" horiz-adv-x="593" unicode="R"/>
<glyph d="M299 -7q-63 0 -109 16t-78 43.5t-49.5 64.5t-23.5 80h35q5 -35 19.5 -66.5t41.5 -55t67 -37.5t97 -14q47 0 84 12.5t62.5 34.5t39 52.5t13.5 65.5q0 42 -11 70t-35 47t-63 31t-94 20q-120 17 -173.5 60.5t-53.5 122.5q0 42 16 75.5t45 57t70 36.5t91 13q96 0 151.5 -44.5 t68.5 -124.5h-34q-13 66 -57.5 102.5t-128.5 36.5q-88 0 -137.5 -38.5t-49.5 -111.5q0 -32 9.5 -56.5t32.5 -43t61 -31.5t94 -21q61 -9 105 -22.5t72.5 -36t42.5 -57t14 -84.5q0 -41 -16 -77t-46.5 -62.5t-74 -42t-98.5 -15.5z" glyph-name="S" horiz-adv-x="586" unicode="S"/>
<glyph d="M261 685h-230v30h497v-30h-231v-685h-36v685z" glyph-name="T" horiz-adv-x="558" unicode="T"/>
<glyph d="M336 -5q-119 0 -187.5 65.5t-68.5 192.5v462h36v-459q0 -116 57 -173t163 -57q115 0 168 59t53 184v446h36v-451q0 -127 -63 -198t-194 -71z" glyph-name="U" horiz-adv-x="674" unicode="U"/>
<glyph d="M29 715h35l255 -678l244 678h34l-257 -715h-43z" glyph-name="V" horiz-adv-x="626" unicode="V"/>
<glyph d="M32 715h36l176 -663l202 663h25l191 -665l188 665h33l-203 -715h-38l-184 648l-198 -648h-37z" glyph-name="W" horiz-adv-x="915" unicode="W"/>
<glyph d="M300 372l-230 343h40l213 -317l212 317h38l-231 -344l250 -371h-40l-233 345l-235 -345h-37z" glyph-name="X" horiz-adv-x="638" unicode="X"/>
<glyph d="M272 322l-250 393h41l228 -362l215 362h37l-235 -393v-322h-36v322z" glyph-name="Y" horiz-adv-x="565" unicode="Y"/>
<glyph d="M27 9l466 676h-430v30h482v-8l-464 -676h458v-31h-512v9z" glyph-name="Z" horiz-adv-x="582" unicode="Z"/>
<glyph d="M96 776h194v-28h-159v-868h159v-28h-194v924z" glyph-name="bracketleft" horiz-adv-x="331" unicode="["/>
<glyph d="M41 776h34l291 -924h-34z" glyph-name="backslash" horiz-adv-x="383" unicode="\"/>
<glyph d="M40 -120h160v868h-160v28h194v-924h-194v28z" glyph-name="bracketright" horiz-adv-x="331" unicode="]"/>
<glyph d="M214 715h33l167 -284h-36l-148 251l-147 -251h-36z" glyph-name="asciicircum" horiz-adv-x="461" unicode="^"/>
<glyph d="M-1 -117h389v-29h-389v29z" glyph-name="underscore" horiz-adv-x="387" unicode="_"/>
<glyph d="M104 747h41l72 -147h-29z" glyph-name="grave" unicode="`"/>
<glyph d="M225 -8q-81 0 -130 37.5t-49 109.5q0 45 19 75.5t51 48.5t75 25.5t90 7.5h130v51q0 81 -35 117.5t-111 36.5q-63 0 -107 -28.5t-55 -92.5h-34q5 39 23 67t44.5 47t60 28t69.5 9q88 0 133.5 -45t45.5 -139v-347h-34v89q-23 -39 -69 -68t-117 -29zM227 21q37 0 70.5 11 t59 29.5t40 44t14.5 54.5v108h-130q-42 0 -78.5 -5.5t-63.5 -19.5t-43 -39.5t-16 -64.5q0 -57 37.5 -87.5t109.5 -30.5z" glyph-name="a" horiz-adv-x="521" unicode="a"/>
<glyph d="M328 -8q-43 0 -78 13t-61.5 34t-45 47.5t-28.5 53.5v-140h-34v773h34v-394q11 30 31.5 57.5t48 48.5t61 33.5t72.5 12.5q48 0 90 -18.5t73.5 -53t50 -83.5t18.5 -110v-8q0 -63 -18 -112t-49.5 -83.5t-74 -52.5t-90.5 -18zM326 22q43 0 79.5 16t63 46t41.5 73.5t15 99.5v8 q0 57 -16 101t-43.5 74t-64 45.5t-76.5 15.5q-39 0 -77 -15.5t-67.5 -45.5t-47.5 -74t-18 -101v-8q0 -56 17 -99.5t46 -73.5t67 -46t81 -16z" glyph-name="b" horiz-adv-x="602" unicode="b"/>
<glyph d="M288 -8q-51 0 -96 19t-78.5 54t-52.5 84t-19 108v8q0 60 19.5 109t53 84t78.5 54t96 19q39 0 75.5 -11t65 -33t48 -53.5t24.5 -71.5h-34q-5 34 -21 60t-40 43.5t-54.5 26.5t-63.5 9q-44 0 -82.5 -16.5t-67.5 -47t-45.5 -74t-16.5 -98.5v-8q0 -54 16.5 -97.5t45 -74 t67 -47t82.5 -16.5q36 0 67.5 10t56 30t41.5 48.5t23 66.5h32q-6 -42 -25 -76t-48 -58.5t-66.5 -37.5t-80.5 -13z" glyph-name="c" horiz-adv-x="547" unicode="c"/>
<glyph d="M277 -8q-49 0 -92 17.5t-74.5 51.5t-50 83t-18.5 112v8q0 61 19 110t52 84t77 54t95 19q42 0 75 -12t57.5 -32.5t41.5 -46.5t28 -53v386h34v-773h-34v140q-9 -26 -27.5 -52.5t-45 -47.5t-61 -34.5t-76.5 -13.5zM279 22q42 0 80 16t66.5 46t45.5 73.5t17 99.5v8 q0 57 -15.5 101t-42.5 74t-63.5 45.5t-79.5 15.5q-44 0 -82 -16t-66.5 -46t-45 -74t-16.5 -100v-8q0 -56 15.5 -100t42.5 -74t64 -45.5t80 -15.5z" glyph-name="d" horiz-adv-x="602" unicode="d"/>
<glyph d="M286 -8q-57 0 -102.5 19.5t-77 55t-48 84t-16.5 106.5v8q0 58 18 107t49.5 84.5t75 55t94.5 19.5q48 0 89 -16.5t71 -48t47 -79t17 -108.5v-15h-426q1 -115 54.5 -178.5t154.5 -63.5q68 0 115.5 30t63.5 92h34q-18 -73 -75 -112.5t-138 -39.5zM469 293q-3 104 -54.5 156 t-135.5 52q-42 0 -77.5 -15t-62 -42t-42.5 -65.5t-19 -85.5h391z" glyph-name="e" horiz-adv-x="545" unicode="e"/>
<glyph d="M107 494h-82v29h82v99q0 42 11.5 71.5t31 47.5t46 26.5t55.5 8.5q17 0 28.5 -1.5t25.5 -6.5v-30q-11 4 -24 6.5t-30 2.5q-23 0 -42.5 -6.5t-34.5 -20.5t-23.5 -37.5t-8.5 -57.5v-102h156v-29h-156v-494h-35v494z" glyph-name="f" horiz-adv-x="324" unicode="f"/>
<glyph d="M286 -187q-56 0 -97.5 13t-70 34.5t-44.5 50t-21 59.5h35q10 -54 57.5 -90.5t139.5 -36.5q43 0 80 10.5t64 33.5t42.5 59.5t15.5 89.5v125q-9 -26 -27.5 -52t-45 -46.5t-61 -33t-76.5 -12.5q-49 0 -92 17t-74.5 49.5t-50 79t-18.5 105.5v8q0 57 19 104t52 80.5t77 52 t95 18.5q42 0 75 -11.5t57.5 -30.5t41.5 -44.5t28 -52.5v131h34v-489q0 -58 -17.5 -100t-49 -69t-74.5 -39.5t-94 -12.5zM279 46q42 0 80 15t66.5 44t45.5 70.5t17 94.5v7q0 53 -15.5 95t-42.5 70.5t-63.5 43.5t-79.5 15q-44 0 -82 -15t-66.5 -44t-45 -70.5t-16.5 -94.5v-8 q0 -53 15.5 -94.5t42.5 -70t64 -43.5t80 -15z" glyph-name="g" horiz-adv-x="602" unicode="g"/>
<glyph d="M81 773h34v-364q9 24 27 46t43 39t57 27t68 10q85 0 136 -49.5t51 -158.5v-323h-34v324q0 93 -41.5 135t-116.5 42q-35 0 -69 -12t-61 -35t-43.5 -57.5t-16.5 -79.5v-317h-34v773z" glyph-name="h" horiz-adv-x="573" unicode="h"/>
<glyph d="M83 523h34v-523h-34v523zM100 637q-11 0 -19 8t-8 19t8 18.5t19 7.5t18.5 -7.5t7.5 -18.5t-7.5 -19t-18.5 -8z" glyph-name="i" horiz-adv-x="200" unicode="i"/>
<glyph d="M6 -156q45 4 61 26.5t16 69.5v583h34v-581q0 -63 -24.5 -94.5t-86.5 -33.5v30zM100 637q-11 0 -19 8t-8 19t8 18.5t19 7.5t18.5 -7.5t7.5 -18.5t-7.5 -19t-18.5 -8z" glyph-name="j" horiz-adv-x="200" unicode="j"/>
<glyph d="M118 277l275 246h42l-275 -245l291 -278h-44zM81 773h34v-773h-34v773z" glyph-name="k" horiz-adv-x="468" unicode="k"/>
<glyph d="M83 773h35v-773h-35v773z" glyph-name="l" horiz-adv-x="201" unicode="l"/>
<glyph d="M81 523h34v-111q9 23 25.5 44.5t40 38t52.5 26.5t63 10q64 0 107 -30t57 -99q23 58 74 93.5t117 35.5q39 0 71 -11t54.5 -35t35 -62.5t12.5 -93.5v-329h-34v330q0 92 -37.5 131.5t-106.5 39.5q-33 0 -64.5 -12t-56 -35t-40 -57t-15.5 -79v-318h-34v330q0 92 -37.5 131.5 t-106.5 39.5q-33 0 -65 -12t-56.5 -35t-40 -57t-15.5 -79v-318h-34v523z" glyph-name="m" horiz-adv-x="900" unicode="m"/>
<glyph d="M81 523h34v-114q9 24 27 46t43 39t57 27t68 10q85 0 136 -49.5t51 -158.5v-323h-34v324q0 93 -41.5 135t-116.5 42q-35 0 -69 -12t-61 -35t-43.5 -57.5t-16.5 -79.5v-317h-34v523z" glyph-name="n" horiz-adv-x="573" unicode="n"/>
<glyph d="M292 22q44 0 83 16.5t68 47t46 74t17 98.5v8q0 55 -17 99t-46.5 74t-68 46t-81.5 16q-44 0 -83 -16.5t-68.5 -47t-47 -74t-17.5 -98.5v-8q0 -54 17 -97t46 -74t68.5 -47.5t83.5 -16.5zM291 -8q-51 0 -96.5 19.5t-79.5 55t-53.5 84t-19.5 106.5v8q0 59 20 107.5t54.5 83.5 t80 54.5t96.5 19.5t96 -19t79 -53.5t53.5 -83t19.5 -108.5v-8q0 -59 -20 -108t-54 -84t-79.5 -54.5t-96.5 -19.5z" glyph-name="o" horiz-adv-x="583" unicode="o"/>
<glyph d="M81 523h34v-144q11 30 31.5 57.5t48 48.5t61 33.5t72.5 12.5q48 0 90 -18.5t73.5 -53t50 -83.5t18.5 -110v-8q0 -63 -18 -112t-49.5 -83.5t-74 -52.5t-90.5 -18q-43 0 -78 13t-61.5 34t-45 47.5t-28.5 53.5v-322h-34v705zM326 22q43 0 79.5 16t63 46t41.5 73.5t15 99.5v8 q0 57 -16 101t-43.5 74t-64 45.5t-76.5 15.5q-39 0 -77 -15.5t-67.5 -45.5t-47.5 -74t-18 -101v-8q0 -56 17 -99.5t46 -73.5t67 -46t81 -16z" glyph-name="p" horiz-adv-x="602" unicode="p"/>
<glyph d="M487 140q-9 -26 -27.5 -52.5t-45 -47.5t-61 -34.5t-76.5 -13.5q-49 0 -92 17.5t-74.5 51.5t-50 83t-18.5 112v8q0 61 19 110t52 84t77 54t95 19q42 0 75 -12t57.5 -32.5t41.5 -46.5t28 -53v136h34v-705h-34v322zM279 22q42 0 80 16t66.5 46t45.5 73.5t17 99.5v8 q0 57 -15.5 101t-42.5 74t-63.5 45.5t-79.5 15.5q-44 0 -82 -16t-66.5 -46t-45 -74t-16.5 -100v-8q0 -56 15.5 -100t42.5 -74t64 -45.5t80 -15.5z" glyph-name="q" horiz-adv-x="602" unicode="q"/>
<glyph d="M81 523h34v-120q10 25 25.5 47t38 39t52 27.5t65.5 11.5v-31q-37 -2 -70 -13.5t-57.5 -36t-39 -63t-14.5 -92.5v-292h-34v523z" glyph-name="r" horiz-adv-x="331" unicode="r"/>
<glyph d="M235 -9q-91 0 -142 45.5t-57 117.5h33q8 -58 47.5 -96t118.5 -38q71 0 108 33t37 83q0 28 -7.5 47.5t-25 32.5t-45.5 21.5t-68 16.5q-46 8 -80 18.5t-56 26.5t-33 39.5t-11 57.5q0 31 13.5 55.5t36.5 42t54.5 27t66.5 9.5q71 0 118.5 -32t58.5 -104h-33q-21 107 -145 107 q-62 0 -100 -28.5t-38 -76.5q0 -26 8.5 -43.5t27 -30.5t48.5 -22t72 -16q43 -8 75.5 -18t54 -26.5t32 -41t10.5 -60.5q0 -31 -12 -57.5t-35 -46.5t-56.5 -31.5t-75.5 -11.5z" glyph-name="s" horiz-adv-x="456" unicode="s"/>
<glyph d="M221 -7q-56 0 -87.5 32.5t-31.5 97.5v371h-79v29h79v119h34v-119h146v-29h-146v-369q0 -54 24 -78t63 -24q21 0 36.5 3t29.5 8v-30q-13 -5 -28.5 -8t-39.5 -3z" glyph-name="t" horiz-adv-x="328" unicode="t"/>
<glyph d="M262 -8q-42 0 -76.5 11t-58.5 35t-37.5 62.5t-13.5 92.5v330h34v-329q0 -92 42 -131.5t115 -39.5q34 0 68 11.5t60 34t42.5 56.5t16.5 79v319h34v-523h-34v112q-9 -24 -26.5 -46t-42 -38.5t-56 -26t-67.5 -9.5z" glyph-name="u" horiz-adv-x="569" unicode="u"/>
<glyph d="M26 523h37l193 -490l191 490h35l-204 -523h-46z" glyph-name="v" horiz-adv-x="508" unicode="v"/>
<glyph d="M30 523h36l151 -482l153 482h29l149 -482l153 482h34l-166 -523h-41l-144 466l-149 -466h-41z" glyph-name="w" horiz-adv-x="765" unicode="w"/>
<glyph d="M228 271l-186 252h41l166 -227l163 227h39l-182 -250l201 -273h-41l-181 248l-180 -248h-38z" glyph-name="x" horiz-adv-x="500" unicode="x"/>
<glyph d="M234 40l-208 483h36l190 -444l181 444h36l-292 -705h-35z" glyph-name="y" horiz-adv-x="495" unicode="y"/>
<glyph d="M26 7l359 487h-329v29h383v-7l-357 -486h350v-30h-406v7z" glyph-name="z" horiz-adv-x="468" unicode="z"/>
<glyph d="M311 -145q-49 0 -85.5 10t-59 32.5t-29.5 59.5t4 91l24 120q6 29 2.5 53.5t-18 42.5t-40.5 28t-66 10v28q79 1 106 38t16 96l-24 121q-11 54 -4 90.5t29.5 59t59 32.5t85.5 10v-28q-40 0 -70 -7.5t-48.5 -25.5t-23.5 -49.5t4 -80.5l24 -123q7 -33 3 -58t-16.5 -42.5 t-32.5 -29t-45 -17.5q25 -6 45 -17t32.5 -29t16.5 -43t-3 -58l-24 -123q-9 -49 -4 -80.5t23.5 -49.5t48.5 -25.5t70 -7.5v-28v0z" glyph-name="braceleft" horiz-adv-x="351" unicode="{"/>
<glyph d="M101 776h31v-924h-31v924z" glyph-name="bar" horiz-adv-x="233" unicode="|"/>
<glyph d="M40 -117q40 0 70.5 7.5t48.5 25.5t23.5 49.5t-4.5 80.5l-24 123q-13 67 14 101.5t77 45.5q-50 12 -77 46.5t-14 100.5l24 123q10 49 4.5 80.5t-23.5 49.5t-48.5 25.5t-70.5 7.5v28q49 0 85.5 -10t59 -32.5t29.5 -59t-3 -90.5l-25 -121q-6 -29 -2.5 -53.5t18 -42.5 t40.5 -28t66 -10v-28q-40 0 -66 -10t-40.5 -28t-18 -42.5t2.5 -53.5l25 -120q10 -54 3 -91t-29.5 -59.5t-59 -32.5t-85.5 -10v28z" glyph-name="braceright" horiz-adv-x="351" unicode="}"/>
<glyph d="M48 237q5 45 29 72t61 27q24 0 44.5 -10.5t39 -22.5t36.5 -22.5t37 -10.5q25 0 41 20t19 48h30q-5 -45 -29 -72t-60 -27q-24 0 -45 10.5t-39.5 22.5t-36.5 22.5t-36 10.5q-26 0 -41.5 -20t-19.5 -48h-30v0z" glyph-name="asciitilde" horiz-adv-x="433" unicode="~"/>
<glyph glyph-name="uni00A0" horiz-adv-x="280" unicode=" "/>
<glyph d="M116 434h28l5 -551h-38zM131 546q-12 0 -20 8.5t-8 19.5q0 12 8 20.5t20 8.5q13 0 21 -8.5t8 -20.5q0 -11 -8 -19.5t-21 -8.5z" glyph-name="exclamdown" horiz-adv-x="263" unicode="¡"/>
<glyph d="M271 -7q-48 3 -90 22t-73 53t-48.5 82t-17.5 107v8q0 59 18 107t49 82t72.5 53.5t89.5 22.5v99h31v-99q37 -2 71 -14t61 -33.5t45 -51.5t23 -69h-34q-5 32 -19.5 57t-37 42.5t-50.5 27t-59 11.5v-478q33 2 62 13.5t52 31t38.5 47t21.5 63.5h32q-6 -40 -24 -73t-45 -57 t-62 -38t-75 -16v-128h-31v128zM77 257q0 -54 15 -96.5t41 -72t61.5 -46.5t76.5 -20v478q-41 -3 -76.5 -19.5t-61.5 -46.5t-41 -72.5t-15 -96.5v-8z" glyph-name="cent" horiz-adv-x="546" unicode="¢"/>
<glyph d="M50 363h74q-11 35 -19 73t-8 84t16 83t44.5 63.5t67.5 41t86 14.5q96 0 148 -49.5t60 -129.5h-35q-11 71 -51.5 109.5t-121.5 38.5q-39 0 -72 -12.5t-56 -35t-36 -54t-13 -69.5q0 -46 8 -83.5t19 -73.5h239v-29h-230q8 -32 14.5 -65.5t6.5 -73.5q0 -27 -6 -50t-16 -43 q30 -2 60.5 -14.5t60.5 -26.5t60 -25.5t59 -11.5q51 0 79.5 30t31.5 86h33q-5 -68 -43 -107.5t-98 -39.5q-36 0 -68.5 12.5t-63.5 27t-60 27t-57 12.5q-38 0 -59.5 -20.5t-26.5 -51.5h-33q5 33 26.5 62t62.5 37q11 20 18 44t7 52q0 39 -7 72.5t-17 66.5h-84v29z" glyph-name="sterling" horiz-adv-x="585" unicode="£"/>
<glyph d="M65 347h182l-219 368h39l207 -349l193 349h36l-204 -368h178v-29h-186v-107h186v-29h-186v-182h-36v182h-190v29h190v107h-190v29z" glyph-name="yen" horiz-adv-x="531" unicode="¥"/>
<glyph d="M101 297h31v-445h-31v445zM101 776h31v-409h-31v409z" glyph-name="brokenbar" horiz-adv-x="235" unicode="¦"/>
<glyph d="M266 -137q-38 0 -70 9.5t-56.5 28.5t-39 46.5t-17.5 62.5h36q5 -55 44 -86t103 -31q66 0 99 32.5t33 86.5q0 30 -8.5 51t-28 37t-50 27.5t-75.5 23.5q-42 11 -76.5 24t-59 31.5t-38 44t-13.5 61.5q0 27 11 50t29.5 40.5t43.5 29.5t54 18q-37 21 -57 49t-20 79q0 33 13 60 t35.5 46t52.5 29.5t63 10.5q73 0 114.5 -36.5t46.5 -102.5h-35q-5 53 -34 81t-91 28q-55 0 -93 -29.5t-38 -85.5q0 -28 8 -48t26.5 -35.5t48 -28t72.5 -25.5q42 -12 76 -26t58 -32.5t37.5 -43.5t13.5 -60q0 -57 -36 -90t-94 -47q39 -20 58.5 -51.5t19.5 -79.5 q0 -33 -11.5 -60.5t-33 -47t-52.5 -30.5t-69 -11zM325 160q59 11 91.5 39t32.5 79q0 27 -10.5 46.5t-30.5 34.5t-49 26.5t-67 23.5l-76 25q-28 -5 -52 -15t-42 -25t-28 -35t-10 -45q0 -29 11 -49t32 -34.5t50.5 -25.5t66.5 -22z" glyph-name="section" horiz-adv-x="532" unicode="§"/>
<glyph d="M123 638q-11 0 -18.5 7.5t-7.5 18.5t7.5 18.5t18.5 7.5t18.5 -7.5t7.5 -18.5t-7.5 -18.5t-18.5 -7.5zM277 638q-11 0 -18.5 7.5t-7.5 18.5t7.5 18.5t18.5 7.5t18.5 -7.5t7.5 -18.5t-7.5 -18.5t-18.5 -7.5z" glyph-name="dieresis" unicode="¨"/>
<glyph d="M425 148q-45 0 -81.5 15.5t-62 43t-39.5 66t-14 85.5v7q0 46 15.5 84.5t42 66.5t62 43.5t76.5 15.5q66 0 113 -33t58 -97h-33q-11 50 -46 76t-92 26q-35 0 -64.5 -13t-51.5 -37t-34 -57.5t-12 -74.5v-6q0 -85 44 -133.5t119 -48.5q57 0 94.5 28.5t48.5 82.5h32 q-6 -33 -21 -59t-38 -44t-52.5 -27.5t-63.5 -9.5zM421 -9q-76 0 -143 28t-116.5 77.5t-78 116t-28.5 144.5q0 76 28.5 143t78 117t117 78.5t144.5 28.5q78 0 145 -28.5t116 -78t77 -116t28 -142.5q0 -78 -28.5 -145.5t-78 -117t-117 -77.5t-144.5 -28zM421 17q70 0 132 26 t108 71.5t72.5 108t26.5 136.5q0 72 -26 134t-71 107.5t-106.5 71.5t-133.5 26q-71 0 -133 -26t-107.5 -72t-72 -108.5t-26.5 -134.5q0 -73 26.5 -135.5t72.5 -108t107.5 -71t130.5 -25.5z" glyph-name="copyright" horiz-adv-x="844" unicode="©"/>
<glyph d="M179 310q-61 0 -99 28.5t-38 83.5q0 35 14.5 58.5t39.5 37.5t58 19.5t71 5.5h95v37q0 60 -25.5 87t-82.5 27q-47 0 -79 -21t-40 -67h-33q8 60 52 88t102 28q66 0 102.5 -35t36.5 -107v-265h-33v67q-17 -29 -52 -50.5t-89 -21.5zM183 337q28 0 53 8t43.5 22t29.5 32.5 t11 40.5v77h-95q-32 0 -59 -4t-47.5 -14.5t-32 -28.5t-11.5 -47q0 -42 27.5 -64t80.5 -22z" glyph-name="ordfeminine" horiz-adv-x="418" unicode="ª"/>
<glyph d="M52 261l137 178h36l-136 -178l136 -178h-36zM197 261l137 178h36l-136 -178l136 -178h-36z" glyph-name="guillemotleft" horiz-adv-x="415" unicode="«"/>
<glyph d="M184 626h73q38 0 61 -16.5t23 -49.5v-1q0 -29 -17 -44t-43 -19l73 -107h-31l-72 104h-40v-104h-27v237zM258 515q55 0 55 43v1q0 24 -13.5 34t-41.5 10h-47v-88h47zM257 282q-46 0 -86.5 17t-70.5 46.5t-47.5 69.5t-17.5 87q0 46 17 86.5t47 70.5t70.5 47.5t87.5 17.5 t87.5 -17t70.5 -47t47 -70.5t17 -86.5q0 -47 -17.5 -87.5t-47.5 -70t-70.5 -46.5t-86.5 -17zM257 304q42 0 78 15t62.5 41.5t41.5 63t15 79.5q0 42 -15 78.5t-41 63.5t-62.5 42t-78.5 15t-78 -15.5t-62.5 -42.5t-41.5 -63.5t-15 -78.5q0 -43 15.5 -79t42 -62.5t62.5 -41.5 t77 -15z" glyph-name="registered" horiz-adv-x="514" unicode="®"/>
<glyph d="M85 675h230v-28h-230v28z" glyph-name="macron" unicode="¯"/>
<glyph d="M198 467q24 0 45 9t36 24.5t23.5 36.5t8.5 44q0 24 -8.5 45.5t-23.5 37t-36 25t-45 9.5q-25 0 -46 -9.5t-36.5 -25t-24 -37t-8.5 -45.5q0 -23 8.5 -44t24 -36.5t36.5 -24.5t46 -9zM198 441q-30 0 -57 11t-46.5 30t-31 44.5t-11.5 54.5q0 30 11.5 56t31 45.5t46.5 30.5 t57 11t56.5 -11t46 -30.5t31 -45.5t11.5 -56q0 -29 -11.5 -54.5t-31 -44.5t-46 -30t-56.5 -11z" glyph-name="degree" horiz-adv-x="395" unicode="°"/>
<glyph d="M237 332h-200v30h200v210h31v-210h200v-30h-200v-209h-31v209zM37 30h431v-30h-431v30z" glyph-name="plusminus" horiz-adv-x="505" unicode="±"/>
<glyph d="M20 379l130 128q36 35 52.5 60.5t16.5 54.5q0 35 -21.5 53.5t-55.5 18.5q-38 0 -59 -22.5t-26 -62.5h-28q4 52 34 80.5t80 28.5q48 0 77 -26t29 -69q0 -36 -18 -64.5t-58 -65.5l-102 -97h181v-25h-232v8z" glyph-name="twosuperior" horiz-adv-x="288" unicode="²"/>
<glyph d="M154 367q-58 0 -91.5 30t-36.5 72h29q4 -31 28 -54t70 -23q42 0 64.5 20t22.5 55q0 32 -21.5 52t-59.5 20h-27v24h25q37 0 55 19t18 46q0 30 -21 48.5t-56 18.5q-41 0 -61.5 -21.5t-24.5 -51.5h-28q3 40 32.5 68t81.5 28q48 0 77 -25t29 -64q0 -30 -16.5 -49.5 t-43.5 -27.5q30 -6 51 -28t21 -57q0 -48 -32 -74t-85 -26z" glyph-name="threesuperior" horiz-adv-x="307" unicode="³"/>
<glyph d="M255 747h41l-84 -147h-28z" glyph-name="acute" unicode="´"/>
<glyph d="M269 357h-14q-47 0 -85.5 11t-66.5 32.5t-43.5 54.5t-15.5 77q0 46 16 80.5t44.5 57.5t67 34t83.5 11h192v-815h-31v789h-117v-789h-30v457z" glyph-name="paragraph" horiz-adv-x="542" unicode="¶"/>
<glyph d="M98 293q-13 0 -21 8.5t-8 20.5t8 20.5t21 8.5q12 0 20 -8.5t8 -20.5t-8 -20.5t-20 -8.5z" glyph-name="periodcentered" horiz-adv-x="195" unicode="·"/>
<glyph d="M211 -211q-38 0 -63 20t-29 55h32q3 -21 18 -34t41 -13t41 13.5t15 35.5q0 26 -16 35.5t-36 9.5q-14 0 -24 -4l-15 -6l-20 18l46 81h32l-38 -67q19 6 37.5 4.5t33.5 -9.5t24 -24t9 -39q0 -37 -25 -56.5t-63 -19.5z" glyph-name="cedilla" unicode="¸"/>
<glyph d="M111 680l-91 -65v29l99 71h23v-344h-31v309z" glyph-name="onesuperior" horiz-adv-x="208" unicode="¹"/>
<glyph d="M232 338q33 0 62 12t50 34.5t33.5 55t12.5 73.5v6q0 41 -12.5 73.5t-33.5 55t-49.5 34t-61.5 11.5t-61.5 -12t-50.5 -35t-34.5 -55.5t-12.5 -72.5v-6q0 -40 12.5 -72t33.5 -54.5t50 -35t62 -12.5zM231 310q-40 0 -74.5 14.5t-60.5 41.5t-41 64t-15 82v6q0 46 15.5 84 t41.5 64t61.5 40.5t74.5 14.5q40 0 74.5 -14t60.5 -40t41 -63.5t15 -84.5v-6q0 -47 -15 -84.5t-41.5 -64t-61.5 -40.5t-75 -14z" glyph-name="ordmasculine" horiz-adv-x="464" unicode="º"/>
<glyph d="M181 261l-136 178h36l138 -178l-138 -178h-36zM326 261l-136 178h36l138 -178l-138 -178h-36z" glyph-name="guillemotright" horiz-adv-x="415" unicode="»"/>
<glyph d="M114 680l-91 -65v29l99 71h23v-344h-31v309zM543 77h-182v11l171 256h41v-243h47v-24h-47v-77h-30v77zM543 101v221l-145 -221h145zM566 715h31l-522 -715h-31z" glyph-name="onequarter" horiz-adv-x="650" unicode="¼"/>
<glyph d="M116 680l-91 -65v29l99 71h23v-344h-31v309zM386 8l130 128q36 35 52.5 60.5t16.5 54.5q0 35 -21.5 53.5t-55.5 18.5q-38 0 -59 -22.5t-26 -62.5h-28q4 52 34 80.5t80 28.5q48 0 77 -26t29 -69q0 -36 -18 -64.5t-58 -65.5l-102 -97h181v-25h-232v8zM546 715h31l-522 -715 h-31z" glyph-name="onehalf" horiz-adv-x="658" unicode="½"/>
<glyph d="M157 367q-58 0 -91.5 30t-36.5 72h29q4 -31 28 -54t70 -23q42 0 64.5 20t22.5 55q0 32 -21.5 52t-59.5 20h-27v24h25q37 0 55 19t18 46q0 30 -21 48.5t-56 18.5q-41 0 -61.5 -21.5t-24.5 -51.5h-28q3 40 32.5 68t81.5 28q48 0 77 -25t29 -64q0 -30 -16.5 -49.5 t-43.5 -27.5q30 -6 51 -28t21 -57q0 -48 -32 -74t-85 -26zM558 77h-182v11l171 256h41v-243h47v-24h-47v-77h-30v77zM558 101v221l-145 -221h145zM609 715h31l-522 -715h-31z" glyph-name="threequarters" horiz-adv-x="671" unicode="¾"/>
<glyph d="M276 372q0 -30 -7.5 -53t-20.5 -43.5t-31 -40t-40 -41.5q-19 -19 -36 -36.5t-29.5 -36t-20 -40t-7.5 -48.5q0 -56 35.5 -91.5t109.5 -35.5q72 0 117.5 43t50.5 119h34q-3 -44 -18.5 -79.5t-42.5 -60.5t-63 -38.5t-79 -13.5q-45 0 -78.5 12t-56 33t-33.5 50t-11 62 q0 32 8 56t22.5 44t33.5 39t40 41q21 21 37.5 39t28.5 36.5t18.5 39t6.5 46.5v60h32v-62zM260 603q12 0 20.5 -8.5t8.5 -20.5q0 -11 -8.5 -19.5t-20.5 -8.5t-20.5 8.5t-8.5 19.5q0 12 8.5 20.5t20.5 8.5z" glyph-name="questiondown" horiz-adv-x="469" unicode="¿"/>
<glyph d="M296 715h48l266 -715h-36l-85 228h-339l-84 -228h-34zM161 258h317l-159 428zM224 891h42l68 -120h-29z" glyph-name="Agrave" horiz-adv-x="641" unicode="À"/>
<glyph d="M296 715h48l266 -715h-36l-85 228h-339l-84 -228h-34zM161 258h317l-159 428zM362 891h41l-81 -120h-29z" glyph-name="Aacute" horiz-adv-x="641" unicode="Á"/>
<glyph d="M296 715h48l266 -715h-36l-85 228h-339l-84 -228h-34zM161 258h317l-159 428zM298 891h34l110 -120h-30l-97 90l-99 -90h-30z" glyph-name="Acircumflex" horiz-adv-x="641" unicode="Â"/>
<glyph d="M296 715h48l266 -715h-36l-85 228h-339l-84 -228h-34zM161 258h317l-159 428zM381 773q-19 0 -36.5 9.5t-34 20.5t-31.5 20.5t-30 9.5q-20 0 -33.5 -15t-17.5 -44h-27q5 45 26.5 67t51.5 22q18 0 35.5 -9.5t34 -20.5t32 -20.5t30.5 -9.5q19 0 32.5 15t17.5 44h27 q-5 -45 -26.5 -67t-50.5 -22z" glyph-name="Atilde" horiz-adv-x="641" unicode="Ã"/>
<glyph d="M296 715h48l266 -715h-36l-85 228h-339l-84 -228h-34zM161 258h317l-159 428zM231 788q-11 0 -18.5 7.5t-7.5 18.5t7.5 18.5t18.5 7.5t18.5 -7.5t7.5 -18.5t-7.5 -18.5t-18.5 -7.5zM397 788q-11 0 -18.5 7.5t-7.5 18.5t7.5 18.5t18.5 7.5t18.5 -7.5t7.5 -18.5t-7.5 -18.5 t-18.5 -7.5z" glyph-name="Adieresis" horiz-adv-x="641" unicode="Ä"/>
<glyph d="M296 715h48l266 -715h-36l-85 228h-339l-84 -228h-34zM161 258h317l-159 428zM314 774q29 0 48 19.5t19 47.5q0 29 -19 48.5t-48 19.5q-27 0 -46.5 -19.5t-19.5 -48.5q0 -28 19.5 -47.5t46.5 -19.5zM314 752q-19 0 -35.5 7t-29 19.5t-20 28.5t-7.5 34q0 38 27 64.5 t65 26.5q19 0 36 -7t30 -19.5t20 -29t7 -35.5q0 -18 -7 -34t-20 -28.5t-30 -19.5t-36 -7z" glyph-name="Aring" horiz-adv-x="641" unicode="Å"/>
<glyph d="M387 715h491v-30h-371v-301h301v-31h-301v-322h389v-31h-425v228h-291l-114 -228h-38zM195 258h276v427h-63z" glyph-name="AE" horiz-adv-x="943" unicode="Æ"/>
<glyph d="M366 -211q-38 0 -63 20t-29 55h32q3 -21 18 -34t41 -13t41 13.5t15 35.5q0 26 -16 35.5t-36 9.5q-14 0 -24 -4l-15 -6l-20 18l42 75q-69 5 -124.5 33.5t-95 75.5t-60.5 110.5t-21 139.5v8q0 79 26 145.5t71 114.5t105 74.5t129 26.5q55 0 103 -14t86 -41.5t63.5 -68 t34.5 -92.5h-36q-19 89 -83 137.5t-168 48.5q-63 0 -117 -24.5t-93 -68t-61.5 -104t-22.5 -133.5v-8q0 -75 21 -135.5t59 -104t92.5 -67t122.5 -23.5q103 0 172.5 53t89.5 148h33q-10 -55 -36 -98t-64.5 -72.5t-88 -45.5t-105.5 -16l-34 -60q19 6 37.5 4.5t33.5 -9.5t24 -24 t9 -39q0 -37 -25 -56.5t-63 -19.5z" glyph-name="Ccedilla" horiz-adv-x="723" unicode="Ç"/>
<glyph d="M94 715h406v-30h-370v-301h301v-31h-301v-322h388v-31h-424v715zM205 891h42l68 -120h-29z" glyph-name="Egrave" horiz-adv-x="566" unicode="È"/>
<glyph d="M94 715h406v-30h-370v-301h301v-31h-301v-322h388v-31h-424v715zM343 891h41l-81 -120h-29z" glyph-name="Eacute" horiz-adv-x="566" unicode="É"/>
<glyph d="M94 715h406v-30h-370v-301h301v-31h-301v-322h388v-31h-424v715zM279 891h34l110 -120h-30l-97 90l-99 -90h-30z" glyph-name="Ecircumflex" horiz-adv-x="566" unicode="Ê"/>
<glyph d="M94 715h406v-30h-370v-301h301v-31h-301v-322h388v-31h-424v715zM212 788q-11 0 -18.5 7.5t-7.5 18.5t7.5 18.5t18.5 7.5t18.5 -7.5t7.5 -18.5t-7.5 -18.5t-18.5 -7.5zM378 788q-11 0 -18.5 7.5t-7.5 18.5t7.5 18.5t18.5 7.5t18.5 -7.5t7.5 -18.5t-7.5 -18.5t-18.5 -7.5z " glyph-name="Edieresis" horiz-adv-x="566" unicode="Ë"/>
<glyph d="M99 715h36v-715h-36v715zM27 891h42l68 -120h-29z" glyph-name="Igrave" horiz-adv-x="234" unicode="Ì"/>
<glyph d="M99 715h36v-715h-36v715zM165 891h41l-81 -120h-29z" glyph-name="Iacute" horiz-adv-x="234" unicode="Í"/>
<glyph d="M99 715h36v-715h-36v715zM101 891h34l110 -120h-30l-97 90l-99 -90h-30z" glyph-name="Icircumflex" horiz-adv-x="234" unicode="Î"/>
<glyph d="M99 715h36v-715h-36v715zM34 788q-11 0 -18.5 7.5t-7.5 18.5t7.5 18.5t18.5 7.5t18.5 -7.5t7.5 -18.5t-7.5 -18.5t-18.5 -7.5zM200 788q-11 0 -18.5 7.5t-7.5 18.5t7.5 18.5t18.5 7.5t18.5 -7.5t7.5 -18.5t-7.5 -18.5t-18.5 -7.5z" glyph-name="Idieresis" horiz-adv-x="234" unicode="Ï"/>
<glyph d="M24 375h75v340h183q87 0 152.5 -27t110 -74t67 -111t22.5 -139v-8q0 -74 -21.5 -139t-65 -113t-110.5 -76t-157 -28h-181v345h-75v30zM278 31q81 0 140.5 24.5t99.5 68t59.5 103t19.5 129.5v8q0 68 -19 127t-58.5 102t-100 67.5t-142.5 24.5h-142v-310h209v-30h-209v-314 h143z" glyph-name="Eth" horiz-adv-x="685" unicode="Ð"/>
<glyph d="M94 715h51l433 -667v667h35v-715h-44l-440 678v-678h-35v715zM431 773q-19 0 -36.5 9.5t-34 20.5t-31.5 20.5t-30 9.5q-20 0 -33.5 -15t-17.5 -44h-27q5 45 26.5 67t51.5 22q18 0 35.5 -9.5t34 -20.5t32 -20.5t30.5 -9.5q19 0 32.5 15t17.5 44h27q-5 -45 -26.5 -67 t-50.5 -22z" glyph-name="Ntilde" horiz-adv-x="707" unicode="Ñ"/>
<glyph d="M400 24q67 0 123 25.5t97 70t64 105t23 131.5v8q0 69 -23 128.5t-64 104t-97.5 70t-124.5 25.5t-125 -25.5t-98 -69.5t-64 -105t-23 -131v-8q0 -70 23.5 -130t65.5 -104.5t99 -69.5t124 -25zM400 -7q-75 0 -139 28t-110.5 77t-73 114.5t-26.5 140.5v8q0 76 26.5 142 t73.5 114.5t110 76.5t137 28t137 -27.5t109.5 -76t73 -114t26.5 -140.5v-8q0 -76 -26.5 -142t-72.5 -115t-109 -77.5t-136 -28.5zM307 891h42l68 -120h-29z" glyph-name="Ograve" horiz-adv-x="795" unicode="Ò"/>
<glyph d="M400 24q67 0 123 25.5t97 70t64 105t23 131.5v8q0 69 -23 128.5t-64 104t-97.5 70t-124.5 25.5t-125 -25.5t-98 -69.5t-64 -105t-23 -131v-8q0 -70 23.5 -130t65.5 -104.5t99 -69.5t124 -25zM400 -7q-75 0 -139 28t-110.5 77t-73 114.5t-26.5 140.5v8q0 76 26.5 142 t73.5 114.5t110 76.5t137 28t137 -27.5t109.5 -76t73 -114t26.5 -140.5v-8q0 -76 -26.5 -142t-72.5 -115t-109 -77.5t-136 -28.5zM445 891h41l-81 -120h-29z" glyph-name="Oacute" horiz-adv-x="795" unicode="Ó"/>
<glyph d="M400 24q67 0 123 25.5t97 70t64 105t23 131.5v8q0 69 -23 128.5t-64 104t-97.5 70t-124.5 25.5t-125 -25.5t-98 -69.5t-64 -105t-23 -131v-8q0 -70 23.5 -130t65.5 -104.5t99 -69.5t124 -25zM400 -7q-75 0 -139 28t-110.5 77t-73 114.5t-26.5 140.5v8q0 76 26.5 142 t73.5 114.5t110 76.5t137 28t137 -27.5t109.5 -76t73 -114t26.5 -140.5v-8q0 -76 -26.5 -142t-72.5 -115t-109 -77.5t-136 -28.5zM381 891h34l110 -120h-30l-97 90l-99 -90h-30z" glyph-name="Ocircumflex" horiz-adv-x="795" unicode="Ô"/>
<glyph d="M400 24q67 0 123 25.5t97 70t64 105t23 131.5v8q0 69 -23 128.5t-64 104t-97.5 70t-124.5 25.5t-125 -25.5t-98 -69.5t-64 -105t-23 -131v-8q0 -70 23.5 -130t65.5 -104.5t99 -69.5t124 -25zM400 -7q-75 0 -139 28t-110.5 77t-73 114.5t-26.5 140.5v8q0 76 26.5 142 t73.5 114.5t110 76.5t137 28t137 -27.5t109.5 -76t73 -114t26.5 -140.5v-8q0 -76 -26.5 -142t-72.5 -115t-109 -77.5t-136 -28.5zM464 773q-19 0 -36.5 9.5t-34 20.5t-31.5 20.5t-30 9.5q-20 0 -33.5 -15t-17.5 -44h-27q5 45 26.5 67t51.5 22q18 0 35.5 -9.5t34 -20.5 t32 -20.5t30.5 -9.5q19 0 32.5 15t17.5 44h27q-5 -45 -26.5 -67t-50.5 -22z" glyph-name="Otilde" horiz-adv-x="795" unicode="Õ"/>
<glyph d="M400 24q67 0 123 25.5t97 70t64 105t23 131.5v8q0 69 -23 128.5t-64 104t-97.5 70t-124.5 25.5t-125 -25.5t-98 -69.5t-64 -105t-23 -131v-8q0 -70 23.5 -130t65.5 -104.5t99 -69.5t124 -25zM400 -7q-75 0 -139 28t-110.5 77t-73 114.5t-26.5 140.5v8q0 76 26.5 142 t73.5 114.5t110 76.5t137 28t137 -27.5t109.5 -76t73 -114t26.5 -140.5v-8q0 -76 -26.5 -142t-72.5 -115t-109 -77.5t-136 -28.5zM314 788q-11 0 -18.5 7.5t-7.5 18.5t7.5 18.5t18.5 7.5t18.5 -7.5t7.5 -18.5t-7.5 -18.5t-18.5 -7.5zM480 788q-11 0 -18.5 7.5t-7.5 18.5 t7.5 18.5t18.5 7.5t18.5 -7.5t7.5 -18.5t-7.5 -18.5t-18.5 -7.5z" glyph-name="Odieresis" horiz-adv-x="795" unicode="Ö"/>
<glyph d="M53 171l166 164l-166 166l21 21l165 -165l165 165l21 -21l-165 -166l165 -164l-21 -21l-165 165l-165 -165z" glyph-name="multiply" horiz-adv-x="492" unicode="×"/>
<glyph d="M45 2l96 106q-43 48 -66.5 110.5t-23.5 134.5v8q0 76 26.5 142t73.5 114.5t110 76.5t137 28q65 0 121.5 -22t101.5 -60l88 98l22 -22l-87 -97q47 -48 73.5 -113.5t26.5 -141.5v-8q0 -76 -26.5 -142t-72.5 -115t-109 -77.5t-136 -28.5q-71 0 -131.5 24.5t-106.5 68.5 l-95 -106zM400 24q67 0 123 25.5t97 70t64 105t23 131.5v8q0 69 -22 128t-63 104l-438 -486q42 -41 96.5 -63.5t119.5 -22.5zM88 353q0 -66 20 -121.5t55 -98.5l437 484q-40 35 -91 55t-111 20q-68 0 -125 -25.5t-98 -69.5t-64 -105t-23 -131v-8z" glyph-name="Oslash" horiz-adv-x="795" unicode="Ø"/>
<glyph d="M336 -5q-119 0 -187.5 65.5t-68.5 192.5v462h36v-459q0 -116 57 -173t163 -57q115 0 168 59t53 184v446h36v-451q0 -127 -63 -198t-194 -71zM247 891h42l68 -120h-29z" glyph-name="Ugrave" horiz-adv-x="674" unicode="Ù"/>
<glyph d="M336 -5q-119 0 -187.5 65.5t-68.5 192.5v462h36v-459q0 -116 57 -173t163 -57q115 0 168 59t53 184v446h36v-451q0 -127 -63 -198t-194 -71zM384 891h41l-81 -120h-29z" glyph-name="Uacute" horiz-adv-x="674" unicode="Ú"/>
<glyph d="M336 -5q-119 0 -187.5 65.5t-68.5 192.5v462h36v-459q0 -116 57 -173t163 -57q115 0 168 59t53 184v446h36v-451q0 -127 -63 -198t-194 -71zM320 891h34l110 -120h-30l-97 90l-99 -90h-30z" glyph-name="Ucircumflex" horiz-adv-x="674" unicode="Û"/>
<glyph d="M336 -5q-119 0 -187.5 65.5t-68.5 192.5v462h36v-459q0 -116 57 -173t163 -57q115 0 168 59t53 184v446h36v-451q0 -127 -63 -198t-194 -71zM253 788q-11 0 -18.5 7.5t-7.5 18.5t7.5 18.5t18.5 7.5t18.5 -7.5t7.5 -18.5t-7.5 -18.5t-18.5 -7.5zM419 788q-11 0 -18.5 7.5 t-7.5 18.5t7.5 18.5t18.5 7.5t18.5 -7.5t7.5 -18.5t-7.5 -18.5t-18.5 -7.5z" glyph-name="Udieresis" horiz-adv-x="674" unicode="Ü"/>
<glyph d="M272 322l-250 393h41l228 -362l215 362h37l-235 -393v-322h-36v322zM335 891h41l-81 -120h-29z" glyph-name="Yacute" horiz-adv-x="565" unicode="Ý"/>
<glyph d="M94 715h35v-150h145q52 0 96 -10t76 -32.5t49.5 -59t17.5 -89.5v-4q0 -53 -17.5 -90t-49.5 -60t-76 -33t-96 -10h-145v-177h-35v715zM275 207q46 0 83.5 8.5t64 27.5t40.5 50.5t14 76.5v4q0 46 -14.5 77t-41.5 49.5t-64 26t-82 7.5h-146v-327h146z" glyph-name="Thorn" horiz-adv-x="559" unicode="Þ"/>
<glyph d="M311 -5q-31 0 -54 4t-42 12v30q21 -8 43.5 -12.5t51.5 -4.5q33 0 64 9t55 30.5t38.5 56.5t14.5 86v7q0 47 -18 87t-48.5 69t-72.5 45.5t-90 15.5v30q42 0 73 12.5t52 33.5t31 48t10 55v4q0 60 -37 97t-109 37q-75 0 -116.5 -46.5t-41.5 -124.5v-576h-34v575 q0 46 14.5 83.5t40 63.5t61 40t77.5 14t75.5 -12.5t56.5 -34t35 -51.5t12 -65v-4q0 -58 -36 -102.5t-98 -59.5q38 -7 74 -26.5t63.5 -49.5t44 -70t16.5 -87v-7q0 -60 -18 -100.5t-47 -65t-66 -35.5t-75 -11z" glyph-name="germandbls" horiz-adv-x="557" unicode="ß"/>
<glyph d="M225 -8q-81 0 -130 37.5t-49 109.5q0 45 19 75.5t51 48.5t75 25.5t90 7.5h130v51q0 81 -35 117.5t-111 36.5q-63 0 -107 -28.5t-55 -92.5h-34q5 39 23 67t44.5 47t60 28t69.5 9q88 0 133.5 -45t45.5 -139v-347h-34v89q-23 -39 -69 -68t-117 -29zM227 21q37 0 70.5 11 t59 29.5t40 44t14.5 54.5v108h-130q-42 0 -78.5 -5.5t-63.5 -19.5t-43 -39.5t-16 -64.5q0 -57 37.5 -87.5t109.5 -30.5zM173 747h41l72 -147h-29z" glyph-name="agrave" horiz-adv-x="521" unicode="à"/>
<glyph d="M225 -8q-81 0 -130 37.5t-49 109.5q0 45 19 75.5t51 48.5t75 25.5t90 7.5h130v51q0 81 -35 117.5t-111 36.5q-63 0 -107 -28.5t-55 -92.5h-34q5 39 23 67t44.5 47t60 28t69.5 9q88 0 133.5 -45t45.5 -139v-347h-34v89q-23 -39 -69 -68t-117 -29zM227 21q37 0 70.5 11 t59 29.5t40 44t14.5 54.5v108h-130q-42 0 -78.5 -5.5t-63.5 -19.5t-43 -39.5t-16 -64.5q0 -57 37.5 -87.5t109.5 -30.5zM315 747h41l-84 -147h-28z" glyph-name="aacute" horiz-adv-x="521" unicode="á"/>
<glyph d="M225 -8q-81 0 -130 37.5t-49 109.5q0 45 19 75.5t51 48.5t75 25.5t90 7.5h130v51q0 81 -35 117.5t-111 36.5q-63 0 -107 -28.5t-55 -92.5h-34q5 39 23 67t44.5 47t60 28t69.5 9q88 0 133.5 -45t45.5 -139v-347h-34v89q-23 -39 -69 -68t-117 -29zM227 21q37 0 70.5 11 t59 29.5t40 44t14.5 54.5v108h-130q-42 0 -78.5 -5.5t-63.5 -19.5t-43 -39.5t-16 -64.5q0 -57 37.5 -87.5t109.5 -30.5zM247 729h34l109 -129h-30l-96 100l-98 -100h-30z" glyph-name="acircumflex" horiz-adv-x="521" unicode="â"/>
<glyph d="M225 -8q-81 0 -130 37.5t-49 109.5q0 45 19 75.5t51 48.5t75 25.5t90 7.5h130v51q0 81 -35 117.5t-111 36.5q-63 0 -107 -28.5t-55 -92.5h-34q5 39 23 67t44.5 47t60 28t69.5 9q88 0 133.5 -45t45.5 -139v-347h-34v89q-23 -39 -69 -68t-117 -29zM227 21q37 0 70.5 11 t59 29.5t40 44t14.5 54.5v108h-130q-42 0 -78.5 -5.5t-63.5 -19.5t-43 -39.5t-16 -64.5q0 -57 37.5 -87.5t109.5 -30.5zM333 615q-19 0 -37 9t-34.5 20t-31.5 20t-30 9q-17 0 -31.5 -14.5t-18.5 -43.5h-27q5 45 26.5 66.5t51.5 21.5q18 0 35.5 -9t34 -20.5t32.5 -20.5t31 -9 q17 0 31 15t18 44h27q-5 -45 -26.5 -66.5t-50.5 -21.5z" glyph-name="atilde" horiz-adv-x="521" unicode="ã"/>
<glyph d="M225 -8q-81 0 -130 37.5t-49 109.5q0 45 19 75.5t51 48.5t75 25.5t90 7.5h130v51q0 81 -35 117.5t-111 36.5q-63 0 -107 -28.5t-55 -92.5h-34q5 39 23 67t44.5 47t60 28t69.5 9q88 0 133.5 -45t45.5 -139v-347h-34v89q-23 -39 -69 -68t-117 -29zM227 21q37 0 70.5 11 t59 29.5t40 44t14.5 54.5v108h-130q-42 0 -78.5 -5.5t-63.5 -19.5t-43 -39.5t-16 -64.5q0 -57 37.5 -87.5t109.5 -30.5zM189 638q-11 0 -18.5 7.5t-7.5 18.5t7.5 18.5t18.5 7.5t18.5 -7.5t7.5 -18.5t-7.5 -18.5t-18.5 -7.5zM343 638q-11 0 -18.5 7.5t-7.5 18.5t7.5 18.5 t18.5 7.5t18.5 -7.5t7.5 -18.5t-7.5 -18.5t-18.5 -7.5z" glyph-name="adieresis" horiz-adv-x="521" unicode="ä"/>
<glyph d="M225 -8q-81 0 -130 37.5t-49 109.5q0 45 19 75.5t51 48.5t75 25.5t90 7.5h130v51q0 81 -35 117.5t-111 36.5q-63 0 -107 -28.5t-55 -92.5h-34q5 39 23 67t44.5 47t60 28t69.5 9q88 0 133.5 -45t45.5 -139v-347h-34v89q-23 -39 -69 -68t-117 -29zM227 21q37 0 70.5 11 t59 29.5t40 44t14.5 54.5v108h-130q-42 0 -78.5 -5.5t-63.5 -19.5t-43 -39.5t-16 -64.5q0 -57 37.5 -87.5t109.5 -30.5zM266 625q29 0 48 19.5t19 47.5q0 29 -19 48.5t-48 19.5q-27 0 -46.5 -19.5t-19.5 -48.5q0 -28 19.5 -47.5t46.5 -19.5zM266 603q-19 0 -35.5 7t-29 19.5 t-20 28.5t-7.5 34q0 38 27 64.5t65 26.5q19 0 36 -7t30 -19.5t20 -29t7 -35.5q0 -18 -7 -34t-20 -28.5t-30 -19.5t-36 -7z" glyph-name="aring" horiz-adv-x="521" unicode="å"/>
<glyph d="M652 -8q-83 0 -137.5 40t-79.5 109q-9 -36 -29 -64t-48 -47t-62 -28.5t-70 -9.5q-81 0 -130.5 37t-49.5 109q0 45 18.5 75t50.5 47.5t74 24.5t89 7h136v54q0 81 -36.5 118t-111.5 37q-63 0 -107.5 -28.5t-55.5 -92.5h-34q5 39 23 67t45 47t60.5 28t69.5 9q75 0 119 -34 t55 -103q27 64 80 100.5t124 36.5q48 0 88.5 -16t70.5 -48t46.5 -79t16.5 -109v-15h-419q1 -115 52.5 -178.5t151.5 -63.5q68 0 114 30t63 92h34q-18 -73 -74 -112.5t-137 -39.5zM228 21q37 0 71 11t59.5 32t40.5 50.5t15 65.5v84h-135q-42 0 -78.5 -5t-63 -19t-42 -38.5 t-15.5 -63.5q0 -58 38 -87.5t110 -29.5zM832 292q-2 104 -53 156.5t-134 52.5q-41 0 -76 -15t-61 -42t-41.5 -65.5t-18.5 -86.5h384z" glyph-name="ae" horiz-adv-x="909" unicode="æ"/>
<glyph d="M267 -211q-38 0 -63 20t-29 55h32q3 -21 18 -34t41 -13t41 13.5t15 35.5q0 26 -16 35.5t-36 9.5q-14 0 -24 -4l-15 -6l-20 18l43 76q-45 6 -84 27t-67.5 55t-44.5 80t-16 100v8q0 60 19.5 109t53 84t78.5 54t96 19q39 0 75.5 -11t65 -33t48 -53.5t24.5 -71.5h-34 q-5 34 -21 60t-40 43.5t-54.5 26.5t-63.5 9q-44 0 -82.5 -16.5t-67.5 -47t-45.5 -74t-16.5 -98.5v-8q0 -54 16.5 -97.5t45 -74t67 -47t82.5 -16.5q36 0 67.5 10t56 30t41.5 48.5t23 66.5h32q-6 -42 -25 -76t-48 -58.5t-66.5 -37.5t-80.5 -13h-4l-33 -59q19 6 37.5 4.5 t33.5 -9.5t24 -24t9 -39q0 -37 -25 -56.5t-63 -19.5z" glyph-name="ccedilla" horiz-adv-x="547" unicode="ç"/>
<glyph d="M286 -8q-57 0 -102.5 19.5t-77 55t-48 84t-16.5 106.5v8q0 58 18 107t49.5 84.5t75 55t94.5 19.5q48 0 89 -16.5t71 -48t47 -79t17 -108.5v-15h-426q1 -115 54.5 -178.5t154.5 -63.5q68 0 115.5 30t63.5 92h34q-18 -73 -75 -112.5t-138 -39.5zM469 293q-3 104 -54.5 156 t-135.5 52q-42 0 -77.5 -15t-62 -42t-42.5 -65.5t-19 -85.5h391zM184 747h41l72 -147h-29z" glyph-name="egrave" horiz-adv-x="545" unicode="è"/>
<glyph d="M286 -8q-57 0 -102.5 19.5t-77 55t-48 84t-16.5 106.5v8q0 58 18 107t49.5 84.5t75 55t94.5 19.5q48 0 89 -16.5t71 -48t47 -79t17 -108.5v-15h-426q1 -115 54.5 -178.5t154.5 -63.5q68 0 115.5 30t63.5 92h34q-18 -73 -75 -112.5t-138 -39.5zM469 293q-3 104 -54.5 156 t-135.5 52q-42 0 -77.5 -15t-62 -42t-42.5 -65.5t-19 -85.5h391zM326 747h41l-84 -147h-28z" glyph-name="eacute" horiz-adv-x="545" unicode="é"/>
<glyph d="M286 -8q-57 0 -102.5 19.5t-77 55t-48 84t-16.5 106.5v8q0 58 18 107t49.5 84.5t75 55t94.5 19.5q48 0 89 -16.5t71 -48t47 -79t17 -108.5v-15h-426q1 -115 54.5 -178.5t154.5 -63.5q68 0 115.5 30t63.5 92h34q-18 -73 -75 -112.5t-138 -39.5zM469 293q-3 104 -54.5 156 t-135.5 52q-42 0 -77.5 -15t-62 -42t-42.5 -65.5t-19 -85.5h391zM262 729h34l109 -129h-30l-96 100l-98 -100h-30z" glyph-name="ecircumflex" horiz-adv-x="545" unicode="ê"/>
<glyph d="M286 -8q-57 0 -102.5 19.5t-77 55t-48 84t-16.5 106.5v8q0 58 18 107t49.5 84.5t75 55t94.5 19.5q48 0 89 -16.5t71 -48t47 -79t17 -108.5v-15h-426q1 -115 54.5 -178.5t154.5 -63.5q68 0 115.5 30t63.5 92h34q-18 -73 -75 -112.5t-138 -39.5zM469 293q-3 104 -54.5 156 t-135.5 52q-42 0 -77.5 -15t-62 -42t-42.5 -65.5t-19 -85.5h391zM201 638q-11 0 -18.5 7.5t-7.5 18.5t7.5 18.5t18.5 7.5t18.5 -7.5t7.5 -18.5t-7.5 -18.5t-18.5 -7.5zM355 638q-11 0 -18.5 7.5t-7.5 18.5t7.5 18.5t18.5 7.5t18.5 -7.5t7.5 -18.5t-7.5 -18.5t-18.5 -7.5z " glyph-name="edieresis" horiz-adv-x="545" unicode="ë"/>
<glyph d="M83 523h34v-523h-34v523zM2 747h41l72 -147h-29z" glyph-name="igrave" horiz-adv-x="200" unicode="ì"/>
<glyph d="M83 523h34v-523h-34v523zM154 747h41l-84 -147h-28z" glyph-name="iacute" horiz-adv-x="200" unicode="í"/>
<glyph d="M83 523h34v-523h-34v523zM84 729h34l109 -129h-30l-96 100l-98 -100h-30z" glyph-name="icircumflex" horiz-adv-x="200" unicode="î"/>
<glyph d="M36 638q-11 0 -18.5 7.5t-7.5 18.5t7.5 18.5t18.5 7.5t18.5 -7.5t7.5 -18.5t-7.5 -18.5t-18.5 -7.5zM165 638q-11 0 -18.5 7.5t-7.5 18.5t7.5 18.5t18.5 7.5t18.5 -7.5t7.5 -18.5t-7.5 -18.5t-18.5 -7.5zM83 523h34v-523h-34v523z" glyph-name="idieresis" horiz-adv-x="200" unicode="ï"/>
<glyph d="M130 612l134 78q-29 22 -60 42.5t-63 40.5h49q23 -13 49 -29.5t54 -37.5l108 63l15 -24l-100 -57q42 -35 82.5 -78t72 -95t51 -112t19.5 -128v-17q0 -59 -20 -108t-54 -84t-79.5 -54.5t-96.5 -19.5t-96.5 19.5t-79.5 55t-53.5 84t-19.5 106.5v8q0 59 20 108t53 84 t76 54.5t90 19.5q75 0 122.5 -29.5t77.5 -74.5q-31 71 -80.5 131.5t-112.5 112.5l-144 -82zM291 22q44 0 83 16.5t68.5 47t46.5 74.5t17 99v17q0 51 -17 92.5t-46.5 71t-69.5 45.5t-86 16q-42 0 -80 -16.5t-67 -47t-46 -74t-17 -98.5v-8q0 -54 17 -97t46 -74t68 -47.5 t83 -16.5z" glyph-name="eth" horiz-adv-x="588" unicode="ð"/>
<glyph d="M81 523h34v-114q9 24 27 46t43 39t57 27t68 10q85 0 136 -49.5t51 -158.5v-323h-34v324q0 93 -41.5 135t-116.5 42q-35 0 -69 -12t-61 -35t-43.5 -57.5t-16.5 -79.5v-317h-34v523zM352 615q-19 0 -37 9t-34.5 20t-31.5 20t-30 9q-17 0 -31.5 -14.5t-18.5 -43.5h-27 q5 45 26.5 66.5t51.5 21.5q18 0 35.5 -9t34 -20.5t32.5 -20.5t31 -9q17 0 31 15t18 44h27q-5 -45 -26.5 -66.5t-50.5 -21.5z" glyph-name="ntilde" horiz-adv-x="573" unicode="ñ"/>
<glyph d="M292 22q44 0 83 16.5t68 47t46 74t17 98.5v8q0 55 -17 99t-46.5 74t-68 46t-81.5 16q-44 0 -83 -16.5t-68.5 -47t-47 -74t-17.5 -98.5v-8q0 -54 17 -97t46 -74t68.5 -47.5t83.5 -16.5zM291 -8q-51 0 -96.5 19.5t-79.5 55t-53.5 84t-19.5 106.5v8q0 59 20 107.5t54.5 83.5 t80 54.5t96.5 19.5t96 -19t79 -53.5t53.5 -83t19.5 -108.5v-8q0 -59 -20 -108t-54 -84t-79.5 -54.5t-96.5 -19.5zM198 747h41l72 -147h-29z" glyph-name="ograve" horiz-adv-x="583" unicode="ò"/>
<glyph d="M292 22q44 0 83 16.5t68 47t46 74t17 98.5v8q0 55 -17 99t-46.5 74t-68 46t-81.5 16q-44 0 -83 -16.5t-68.5 -47t-47 -74t-17.5 -98.5v-8q0 -54 17 -97t46 -74t68.5 -47.5t83.5 -16.5zM291 -8q-51 0 -96.5 19.5t-79.5 55t-53.5 84t-19.5 106.5v8q0 59 20 107.5t54.5 83.5 t80 54.5t96.5 19.5t96 -19t79 -53.5t53.5 -83t19.5 -108.5v-8q0 -59 -20 -108t-54 -84t-79.5 -54.5t-96.5 -19.5zM340 747h41l-84 -147h-28z" glyph-name="oacute" horiz-adv-x="583" unicode="ó"/>
<glyph d="M292 22q44 0 83 16.5t68 47t46 74t17 98.5v8q0 55 -17 99t-46.5 74t-68 46t-81.5 16q-44 0 -83 -16.5t-68.5 -47t-47 -74t-17.5 -98.5v-8q0 -54 17 -97t46 -74t68.5 -47.5t83.5 -16.5zM291 -8q-51 0 -96.5 19.5t-79.5 55t-53.5 84t-19.5 106.5v8q0 59 20 107.5t54.5 83.5 t80 54.5t96.5 19.5t96 -19t79 -53.5t53.5 -83t19.5 -108.5v-8q0 -59 -20 -108t-54 -84t-79.5 -54.5t-96.5 -19.5zM275 729h34l109 -129h-30l-96 100l-98 -100h-30z" glyph-name="ocircumflex" horiz-adv-x="583" unicode="ô"/>
<glyph d="M292 22q44 0 83 16.5t68 47t46 74t17 98.5v8q0 55 -17 99t-46.5 74t-68 46t-81.5 16q-44 0 -83 -16.5t-68.5 -47t-47 -74t-17.5 -98.5v-8q0 -54 17 -97t46 -74t68.5 -47.5t83.5 -16.5zM291 -8q-51 0 -96.5 19.5t-79.5 55t-53.5 84t-19.5 106.5v8q0 59 20 107.5t54.5 83.5 t80 54.5t96.5 19.5t96 -19t79 -53.5t53.5 -83t19.5 -108.5v-8q0 -59 -20 -108t-54 -84t-79.5 -54.5t-96.5 -19.5zM358 615q-19 0 -37 9t-34.5 20t-31.5 20t-30 9q-17 0 -31.5 -14.5t-18.5 -43.5h-27q5 45 26.5 66.5t51.5 21.5q18 0 35.5 -9t34 -20.5t32.5 -20.5t31 -9 q17 0 31 15t18 44h27q-5 -45 -26.5 -66.5t-50.5 -21.5z" glyph-name="otilde" horiz-adv-x="583" unicode="õ"/>
<glyph d="M292 22q44 0 83 16.5t68 47t46 74t17 98.5v8q0 55 -17 99t-46.5 74t-68 46t-81.5 16q-44 0 -83 -16.5t-68.5 -47t-47 -74t-17.5 -98.5v-8q0 -54 17 -97t46 -74t68.5 -47.5t83.5 -16.5zM291 -8q-51 0 -96.5 19.5t-79.5 55t-53.5 84t-19.5 106.5v8q0 59 20 107.5t54.5 83.5 t80 54.5t96.5 19.5t96 -19t79 -53.5t53.5 -83t19.5 -108.5v-8q0 -59 -20 -108t-54 -84t-79.5 -54.5t-96.5 -19.5zM214 638q-11 0 -18.5 7.5t-7.5 18.5t7.5 18.5t18.5 7.5t18.5 -7.5t7.5 -18.5t-7.5 -18.5t-18.5 -7.5zM368 638q-11 0 -18.5 7.5t-7.5 18.5t7.5 18.5t18.5 7.5 t18.5 -7.5t7.5 -18.5t-7.5 -18.5t-18.5 -7.5z" glyph-name="odieresis" horiz-adv-x="583" unicode="ö"/>
<glyph d="M252 143q-12 0 -20 8.5t-8 20.5t8 20.5t20 8.5q13 0 21 -8.5t8 -20.5t-8 -20.5t-21 -8.5zM37 357h431v-30h-431v30zM252 484q-12 0 -20 8.5t-8 19.5q0 12 8 20.5t20 8.5q13 0 21 -8.5t8 -20.5q0 -11 -8 -19.5t-21 -8.5z" glyph-name="divide" horiz-adv-x="505" unicode="÷"/>
<glyph d="M36 0l69 77q-29 35 -46 80.5t-17 99.5v8q0 59 20 107.5t54.5 83.5t80 54.5t96.5 19.5q47 0 88.5 -15.5t73.5 -44.5l63 70l22 -19l-64 -72q30 -34 47.5 -80t17.5 -103v-8q0 -59 -20 -108t-54 -84t-79.5 -54.5t-96.5 -19.5q-48 0 -90.5 16.5t-75.5 47.5l-67 -75zM292 22 q44 0 83 16.5t68 47t46 74t17 98.5v8q0 50 -14 90t-38 69l-308 -345q29 -28 66.5 -43t79.5 -15zM77 257q0 -48 13.5 -87t36.5 -69l307 345q-29 27 -65 41t-76 14q-44 0 -83 -16.5t-68.5 -47t-47 -74t-17.5 -98.5v-8z" glyph-name="oslash" horiz-adv-x="583" unicode="ø"/>
<glyph d="M262 -8q-42 0 -76.5 11t-58.5 35t-37.5 62.5t-13.5 92.5v330h34v-329q0 -92 42 -131.5t115 -39.5q34 0 68 11.5t60 34t42.5 56.5t16.5 79v319h34v-523h-34v112q-9 -24 -26.5 -46t-42 -38.5t-56 -26t-67.5 -9.5zM191 747h41l72 -147h-29z" glyph-name="ugrave" horiz-adv-x="569" unicode="ù"/>
<glyph d="M262 -8q-42 0 -76.5 11t-58.5 35t-37.5 62.5t-13.5 92.5v330h34v-329q0 -92 42 -131.5t115 -39.5q34 0 68 11.5t60 34t42.5 56.5t16.5 79v319h34v-523h-34v112q-9 -24 -26.5 -46t-42 -38.5t-56 -26t-67.5 -9.5zM333 747h41l-84 -147h-28z" glyph-name="uacute" horiz-adv-x="569" unicode="ú"/>
<glyph d="M262 -8q-42 0 -76.5 11t-58.5 35t-37.5 62.5t-13.5 92.5v330h34v-329q0 -92 42 -131.5t115 -39.5q34 0 68 11.5t60 34t42.5 56.5t16.5 79v319h34v-523h-34v112q-9 -24 -26.5 -46t-42 -38.5t-56 -26t-67.5 -9.5zM269 729h34l109 -129h-30l-96 100l-98 -100h-30z" glyph-name="ucircumflex" horiz-adv-x="569" unicode="û"/>
<glyph d="M262 -8q-42 0 -76.5 11t-58.5 35t-37.5 62.5t-13.5 92.5v330h34v-329q0 -92 42 -131.5t115 -39.5q34 0 68 11.5t60 34t42.5 56.5t16.5 79v319h34v-523h-34v112q-9 -24 -26.5 -46t-42 -38.5t-56 -26t-67.5 -9.5zM208 638q-11 0 -18.5 7.5t-7.5 18.5t7.5 18.5t18.5 7.5 t18.5 -7.5t7.5 -18.5t-7.5 -18.5t-18.5 -7.5zM362 638q-11 0 -18.5 7.5t-7.5 18.5t7.5 18.5t18.5 7.5t18.5 -7.5t7.5 -18.5t-7.5 -18.5t-18.5 -7.5z" glyph-name="udieresis" horiz-adv-x="569" unicode="ü"/>
<glyph d="M234 40l-208 483h36l190 -444l181 444h36l-292 -705h-35zM296 747h41l-84 -147h-28z" glyph-name="yacute" horiz-adv-x="495" unicode="ý"/>
<glyph d="M81 773h34v-394q12 30 32.5 57.5t48 48.5t61.5 33.5t72 12.5q48 0 90.5 -18.5t73.5 -53t49 -83.5t18 -110v-8q0 -63 -18 -112t-49.5 -83.5t-74 -52.5t-90.5 -18q-43 0 -78 13t-61.5 34t-45 47.5t-28.5 53.5v-322h-34v955zM326 22q43 0 79.5 16t63 46t41.5 73.5t15 99.5v8 q0 57 -16 101t-43 74t-63 45.5t-76 15.5q-41 0 -79 -15.5t-67.5 -45.5t-47.5 -74t-18 -101v-8q0 -56 17 -99.5t46 -73.5t67 -46t81 -16z" glyph-name="thorn" horiz-adv-x="602" unicode="þ"/>
<glyph d="M83 523h34v-523h-34v523z" glyph-name="dotlessi" horiz-adv-x="200" unicode="ı"/>
<glyph d="M184 729h34l109 -129h-30l-96 100l-98 -100h-30z" glyph-name="circumflex" unicode="ˆ"/>
<glyph d="M200 625q29 0 48 19.5t19 47.5q0 29 -19 48.5t-48 19.5q-27 0 -46.5 -19.5t-19.5 -48.5q0 -28 19.5 -47.5t46.5 -19.5zM200 603q-19 0 -35.5 7t-29 19.5t-20 28.5t-7.5 34q0 38 27 64.5t65 26.5q19 0 36 -7t30 -19.5t20 -29t7 -35.5q0 -18 -7 -34t-20 -28.5t-30 -19.5 t-36 -7z" glyph-name="ring" unicode="˚"/>
<glyph d="M270 615q-19 0 -37 9t-34.5 20t-31.5 20t-30 9q-17 0 -31.5 -14.5t-18.5 -43.5h-27q5 45 26.5 66.5t51.5 21.5q18 0 35.5 -9t34 -20.5t32.5 -20.5t31 -9q17 0 31 15t18 44h27q-5 -45 -26.5 -66.5t-50.5 -21.5z" glyph-name="tilde" unicode="˜"/>
<glyph d="M107 891h42l68 -120h-29z" glyph-name="grave.uc"/>
<glyph d="M117 788q-11 0 -18.5 7.5t-7.5 18.5t7.5 18.5t18.5 7.5t18.5 -7.5t7.5 -18.5t-7.5 -18.5t-18.5 -7.5zM283 788q-11 0 -18.5 7.5t-7.5 18.5t7.5 18.5t18.5 7.5t18.5 -7.5t7.5 -18.5t-7.5 -18.5t-18.5 -7.5z" glyph-name="dieresis.uc"/>
<glyph d="M252 891h41l-81 -120h-29z" glyph-name="acute.uc"/>
<glyph d="M184 891h34l110 -120h-30l-97 90l-99 -90h-30z" glyph-name="circumflex.uc"/>
<glyph d="M200 774q29 0 48 19.5t19 47.5q0 29 -19 48.5t-48 19.5q-27 0 -46.5 -19.5t-19.5 -48.5q0 -28 19.5 -47.5t46.5 -19.5zM200 752q-19 0 -35.5 7t-29 19.5t-20 28.5t-7.5 34q0 38 27 64.5t65 26.5q19 0 36 -7t30 -19.5t20 -29t7 -35.5q0 -18 -7 -34t-20 -28.5t-30 -19.5 t-36 -7z" glyph-name="ring.uc"/>
<glyph d="M270 773q-19 0 -36.5 9.5t-34 20.5t-31.5 20.5t-30 9.5q-20 0 -33.5 -15t-17.5 -44h-27q5 45 26.5 67t51.5 22q18 0 35.5 -9.5t34 -20.5t32 -20.5t30.5 -9.5q19 0 32.5 15t17.5 44h27q-5 -45 -26.5 -67t-50.5 -22z" glyph-name="tilde.uc"/>
</font>
</defs>
</svg>
