<?xml version="1.0" encoding="UTF-8"?>
<!DOCTYPE svg  PUBLIC '-//W3C//DTD SVG 1.1//EN'  'http://www.w3.org/Graphics/SVG/1.1/DTD/svg11.dtd'>
<svg version="1.1" xmlns="http://www.w3.org/2000/svg">
<defs>
<font id="Graphik-Light" horiz-adv-x="404">
<font-face font-family="Graphik Light" font-weight="300" ascent="818" bbox="-23 -212 901 945" cap-height="715" descent="-182" panose-1="2 11 4 3 3 2 2 6 2 3" underline-position="-107" underline-thickness="50" unicode-range="U+0020-02DC" units-per-em="1000" x-height="523"/>
<missing-glyph/>
<glyph glyph-name="space" horiz-adv-x="251" unicode=" "/>
<glyph d="M136 -5q-18 0 -30.5 12.5t-12.5 29.5q0 18 12.5 30.5t30.5 12.5q17 0 29.5 -12.5t12.5 -30.5q0 -17 -12.5 -29.5t-29.5 -12.5zM107 715h59l-8 -536h-42z" glyph-name="exclam" horiz-adv-x="275" unicode="!"/>
<glyph d="M58 715h58l-9 -209h-40zM189 715h58l-9 -209h-40z" glyph-name="quotedbl" horiz-adv-x="309" unicode='"'/>
<glyph d="M286 295h-120l-28 -196h-45l28 196h-90v45h97l23 157h-92v45h98l26 173h45l-26 -173h120l26 173h45l-26 -173h93v-45h-99l-23 -157h94v-45h-101l-28 -196h-45zM173 340h120l23 157h-120z" glyph-name="numbersign" horiz-adv-x="496" unicode="#"/>
<glyph d="M283 -7q-61 3 -104 21t-71.5 46.5t-44 65.5t-20.5 79h54q4 -32 15.5 -61t32.5 -51.5t54.5 -37t83.5 -17.5v314q-107 18 -160 60.5t-53 123.5q0 40 15.5 73.5t43.5 58t67.5 39t86.5 16.5v90h40v-91q89 -6 142 -52.5t64 -126.5h-51q-12 61 -49.5 95t-105.5 39v-283 q57 -9 99.5 -23t70.5 -37t42 -56.5t14 -82.5q0 -41 -16 -77.5t-45.5 -63.5t-71.5 -43.5t-93 -18.5v-127h-40v128zM495 191q0 36 -9 61t-29.5 43t-53 30t-80.5 20v-308q39 2 71 14.5t54.5 32.5t34.5 47.5t12 59.5zM122 540q0 -27 7.5 -49t25.5 -39.5t49 -30t79 -21.5v277 q-75 -3 -118 -39t-43 -98z" glyph-name="dollar" horiz-adv-x="610" unicode="$"/>
<glyph d="M197 440q46 0 76.5 31t30.5 88q0 55 -30.5 87t-76.5 32q-45 0 -76 -31.5t-31 -89.5q0 -57 31 -87t76 -30zM197 398q-30 0 -58.5 11.5t-50.5 32t-35 50t-13 65.5t13 66t34.5 51.5t50 33.5t59.5 12q32 0 60.5 -12t49.5 -33.5t33.5 -51t12.5 -64.5q0 -37 -13 -66.5 t-34.5 -50.5t-49.5 -32.5t-59 -11.5zM585 715h50l-455 -715h-51zM568 36q46 0 76.5 31t30.5 88q0 55 -30 86.5t-77 31.5q-45 0 -76 -31.5t-31 -88.5t31 -87t76 -30zM568 -7q-30 0 -58.5 11.5t-50 32.5t-34.5 50.5t-13 65.5t12.5 66t34 51.5t50 33.5t59.5 12q32 0 60.5 -12 t50 -33.5t34 -51t12.5 -64.5q0 -37 -13 -67t-35 -51t-50 -32.5t-59 -11.5z" glyph-name="percent" horiz-adv-x="770" unicode="%"/>
<glyph d="M504 146l125 -146h-66l-91 106q-17 -22 -38 -42.5t-46.5 -36t-57 -25t-68.5 -9.5q-48 0 -87.5 14.5t-67.5 40t-43 61t-15 77.5t14 75t38 59t55.5 46t65.5 37q-35 44 -54 81t-19 79q0 36 13 65t35.5 49t51.5 31t62 11t60 -11t46.5 -30.5t30.5 -46t11 -56.5q0 -32 -12 -59 t-34 -49.5t-51.5 -41t-64.5 -33.5l177 -208l96 178h51zM264 38q60 0 103.5 29t75.5 74l-195 231q-29 -14 -55 -31.5t-46 -39t-32 -49t-12 -61.5q0 -69 42 -111t119 -42zM201 563q0 -35 19 -67.5t53 -73.5q63 29 99 64t36 90q0 44 -26.5 72t-72.5 28t-77 -29.5t-31 -83.5z " glyph-name="ampersand" horiz-adv-x="667" unicode="&amp;"/>
<glyph d="M58 715h58l-9 -209h-40z" glyph-name="quotesingle" horiz-adv-x="178" unicode="'"/>
<glyph d="M220 -148q-34 40 -64 89t-52.5 106.5t-35.5 123.5t-13 141t13 141t35.5 123.5t52.5 106.5t64 90h54q-34 -42 -63.5 -90.5t-51.5 -105t-35 -122.5t-13 -143t13 -142.5t35 -122t51.5 -105t63.5 -90.5h-54v0z" glyph-name="parenleft" horiz-adv-x="303" unicode="("/>
<glyph d="M26 -146q34 42 63.5 90.5t51.5 105t35 122t13 142.5t-13 143t-35 122.5t-51.5 105t-63.5 90.5h53q34 -41 64.5 -90t52.5 -106.5t35 -123.5t13 -141t-13 -141t-35 -123.5t-52.5 -106.5t-64.5 -89h-53v0z" glyph-name="parenright" horiz-adv-x="303" unicode=")"/>
<glyph d="M88 450l90 117l-132 40l15 44l128 -51l-4 143h48l-4 -143l128 51l14 -44l-132 -40l90 -117l-37 -27l-84 122l-83 -122z" glyph-name="asterisk" horiz-adv-x="421" unicode="*"/>
<glyph d="M231 319h-195v46h195v209h48v-209h195v-46h-195v-209h-48v209z" glyph-name="plus" horiz-adv-x="514" unicode="+"/>
<glyph d="M33 -99l77 183l52 -24l-93 -177z" glyph-name="comma" horiz-adv-x="233" unicode=","/>
<glyph d="M62 302h209v-50h-209v50z" glyph-name="hyphen" horiz-adv-x="337" unicode="-"/>
<glyph d="M114 -5q-17 0 -29.5 12.5t-12.5 29.5q0 18 12.5 30.5t29.5 12.5q18 0 30.5 -12.5t12.5 -30.5q0 -17 -12.5 -29.5t-30.5 -12.5z" glyph-name="period" horiz-adv-x="233" unicode="."/>
<glyph d="M304 776h50l-291 -924h-50z" glyph-name="slash" horiz-adv-x="395" unicode="/"/>
<glyph d="M332 39q106 0 160 74t54 217v60q0 66 -14.5 119t-42.5 90.5t-68.5 57.5t-91.5 20q-103 0 -159 -75t-56 -214v-61q0 -143 57.5 -215.5t160.5 -72.5zM332 -8q-64 0 -115 23t-86.5 66.5t-54.5 105.5t-19 140v60q0 78 18.5 140.5t53.5 106t85.5 66.5t114.5 23t114.5 -23.5 t86 -66.5t54.5 -105t19 -138v-61q0 -78 -18 -140.5t-52.5 -106t-85 -67t-115.5 -23.5z" glyph-name="zero" horiz-adv-x="663" unicode="0"/>
<glyph d="M191 657l-164 -114v52l172 120h47v-715h-55v657z" glyph-name="one" horiz-adv-x="372" unicode="1"/>
<glyph d="M20 13l287 297q57 59 84.5 110.5t27.5 109.5q0 72 -41.5 109.5t-110.5 37.5t-114.5 -41t-56.5 -129h-52q4 51 22 91t47 67.5t68 42.5t86 15q46 0 84.5 -13t66 -38t42.5 -61.5t15 -82.5q0 -66 -35 -127t-101 -126l-231 -229h377v-46h-465v13z" glyph-name="two" horiz-adv-x="541" unicode="2"/>
<glyph d="M276 -8q-55 0 -98.5 17t-74 45.5t-47.5 66.5t-19 81h51q3 -34 16 -63.5t36 -52t57 -35.5t80 -13q87 0 133 42t46 118q0 69 -39.5 111t-123.5 42h-52v47h48q39 0 66.5 10.5t45 29t25.5 43.5t8 53q0 61 -37.5 101.5t-109.5 40.5q-75 0 -120 -42t-52 -107h-50q3 41 20 76.5 t46.5 62t69 42t86.5 15.5q48 0 85 -15t63 -40.5t39.5 -60t13.5 -72.5q0 -59 -32 -99.5t-85 -57.5q64 -14 103 -59.5t39 -120.5q0 -49 -17.5 -87t-48.5 -64.5t-75 -40.5t-96 -14z" glyph-name="three" horiz-adv-x="571" unicode="3"/>
<glyph d="M402 161h-369v17l346 537h78v-508h99v-46h-99v-161h-55v161zM402 207v467l-295 -467h295z" glyph-name="four" horiz-adv-x="599" unicode="4"/>
<glyph d="M268 -8q-54 0 -95.5 15t-70 41.5t-44.5 61.5t-20 74h54q4 -30 16 -56.5t33 -46.5t52 -31.5t75 -11.5q86 0 134 51.5t48 142.5q0 42 -13 76.5t-36 59t-54.5 38t-68.5 13.5q-66 0 -107.5 -22t-69.5 -56h-21v374h390v-48h-343v-262q23 23 63.5 41.5t96.5 18.5 q46 0 86.5 -16.5t70 -46.5t46.5 -73t17 -97q0 -56 -18 -100.5t-50 -75.5t-75.5 -47.5t-95.5 -16.5z" glyph-name="five" horiz-adv-x="565" unicode="5"/>
<glyph d="M309 -8q-68 0 -115.5 23.5t-77 64t-43 95.5t-13.5 118v52q0 98 20 169.5t55.5 118t85 68.5t108.5 22q79 0 133.5 -39.5t67.5 -123.5h-53q-22 116 -151 116q-46 0 -84.5 -17.5t-66.5 -55.5t-43.5 -97.5t-16.5 -143.5v-29q12 30 33 52.5t47.5 38t57 23.5t62.5 8 q56 0 99.5 -17.5t73.5 -48.5t45.5 -73t15.5 -90q0 -52 -17 -95t-48.5 -74t-75.5 -48t-99 -17zM309 37q42 0 75.5 13.5t57.5 38.5t37 59t13 76t-12 76t-35.5 58.5t-57.5 38t-79 13.5q-38 0 -72 -12t-59.5 -35t-40.5 -56t-15 -74t12 -76.5t35.5 -62t58.5 -42t82 -15.5z" glyph-name="six" horiz-adv-x="604" unicode="6"/>
<glyph d="M415 669h-387v46h457v-9l-279 -706h-57z" glyph-name="seven" horiz-adv-x="508" unicode="7"/>
<glyph d="M292 -8q-46 0 -89 13t-76.5 39t-54 65t-20.5 90q0 37 12 68t33 55t50 40t62 25q-55 16 -91 55.5t-36 100.5q0 42 17.5 75t47 56.5t67 36t78.5 12.5t78.5 -13t66.5 -36t46.5 -56t17.5 -73q0 -63 -35 -102t-90 -56q69 -18 112 -64.5t43 -121.5q0 -52 -19.5 -91t-52.5 -65.5 t-76 -39.5t-91 -13zM292 39q40 0 73.5 10.5t57.5 31t37.5 51t13.5 71.5q0 39 -14 68.5t-38.5 49.5t-57.5 30.5t-70 10.5t-70.5 -10.5t-59 -31t-40.5 -50.5t-15 -69q0 -41 14.5 -71t39.5 -50.5t58 -30.5t71 -10zM295 407q32 0 59.5 9t47.5 26.5t31.5 43t11.5 59.5 q0 29 -11.5 53.5t-32 42t-48.5 27.5t-61 10t-61 -9.5t-49 -27t-32.5 -42.5t-11.5 -56q0 -33 13.5 -58.5t35.5 -43t50 -26t58 -8.5z" glyph-name="eight" horiz-adv-x="587" unicode="8"/>
<glyph d="M281 -7q-88 0 -146 43.5t-73 127.5h54q14 -60 55 -92.5t111 -32.5q47 0 85 15.5t64 51t40.5 92.5t14.5 141v38q-12 -29 -33.5 -50.5t-48.5 -36.5t-58 -22.5t-63 -7.5q-54 0 -97.5 17t-73.5 48t-46 73t-16 92q0 52 17 95t48.5 73.5t76 47.5t99.5 17q63 0 110 -21.5t78 -60 t46 -93t15 -120.5v-82q0 -95 -17.5 -161.5t-51 -109.5t-81.5 -62.5t-109 -19.5zM290 305q39 0 73 12t60 34.5t41 54t15 71.5q0 42 -12 78.5t-35.5 64t-59 43.5t-81.5 16q-42 0 -76 -13.5t-58 -38.5t-37 -59t-13 -76t12 -76t35 -59t57.5 -38.5t78.5 -13.5z" glyph-name="nine" horiz-adv-x="603" unicode="9"/>
<glyph d="M118 -5q-17 0 -29.5 12.5t-12.5 29.5q0 18 12.5 30.5t29.5 12.5q18 0 30.5 -12.5t12.5 -30.5q0 -17 -12.5 -29.5t-30.5 -12.5zM118 320q-17 0 -29.5 12t-12.5 30t12.5 30t29.5 12q18 0 30.5 -12t12.5 -30t-12.5 -30t-30.5 -12z" glyph-name="colon" horiz-adv-x="241" unicode=":"/>
<glyph d="M23 -99l77 183l53 -24l-94 -177zM123 320q-17 0 -29.5 12t-12.5 30t12.5 30t29.5 12q18 0 30.5 -12t12.5 -30t-12.5 -30t-30.5 -12z" glyph-name="semicolon" horiz-adv-x="241" unicode=";"/>
<glyph d="M51 315v14l384 211v-52l-306 -166l306 -166v-52z" glyph-name="less" horiz-adv-x="500" unicode="&lt;"/>
<glyph d="M40 259h404v-46h-404v46zM40 426h404v-46h-404v46z" glyph-name="equal" horiz-adv-x="488" unicode="="/>
<glyph d="M61 156l306 166l-306 166v52l384 -211v-14l-384 -211v52z" glyph-name="greater" horiz-adv-x="500" unicode="&gt;"/>
<glyph d="M188 236q0 30 8 54t21.5 45t31.5 40t39 40q17 17 32.5 33t27 33.5t18.5 36.5t7 43q0 51 -31.5 84t-98.5 33q-66 0 -107.5 -40t-47.5 -110h-51q3 44 19 80t43 61.5t64 39.5t81 14q47 0 81.5 -13t57.5 -35t34 -51t11 -61q0 -30 -8.5 -54t-23 -44t-33 -39t-38.5 -39 q-19 -19 -35.5 -36t-28.5 -35t-18.5 -38.5t-6.5 -45.5v-53h-48v57zM211 -5q-18 0 -30.5 12.5t-12.5 29.5q0 18 12.5 30.5t30.5 12.5q17 0 29.5 -12.5t12.5 -30.5q0 -17 -12.5 -29.5t-29.5 -12.5z" glyph-name="question" horiz-adv-x="481" unicode="?"/>
<glyph d="M460 -147q-101 0 -178 34t-129.5 90.5t-79.5 130.5t-27 154q0 91 34.5 169t93 135t136 89.5t162.5 32.5q90 0 162.5 -28t123.5 -77.5t79 -116.5t28 -144q0 -69 -16.5 -117t-42 -78t-56.5 -43.5t-61 -13.5q-56 0 -82.5 26.5t-31.5 74.5q-9 -20 -24 -39t-34.5 -34.5 t-44 -25t-51.5 -9.5q-35 0 -64.5 12t-50.5 34.5t-32.5 54.5t-11.5 73q0 50 15.5 92.5t42.5 73.5t62 48.5t74 17.5q55 0 88 -27.5t43 -65.5l9 84h53l-28 -240q-7 -51 9.5 -80.5t58.5 -29.5q25 0 48.5 12.5t41.5 38t28.5 65t10.5 94.5q0 71 -23.5 130.5t-68 103t-108.5 67.5 t-146 24q-78 0 -146.5 -28.5t-119.5 -79.5t-80.5 -121t-29.5 -153q0 -72 23 -138.5t69 -117.5t114 -81t158 -30q99 0 164 29.5t108 74.5h50q-18 -30 -49 -57t-72.5 -47t-92 -31.5t-108.5 -11.5zM430 105q29 0 55.5 14t47 38.5t32.5 58.5t12 74q0 66 -31.5 101t-85.5 35 q-28 0 -54 -13.5t-46 -38t-32 -59.5t-12 -78q0 -63 31.5 -97.5t82.5 -34.5z" glyph-name="at" horiz-adv-x="913" unicode="@"/>
<glyph d="M290 715h74l257 -715h-56l-79 219h-322l-78 -219h-53zM180 264h290l-145 405z" glyph-name="A" horiz-adv-x="658" unicode="A"/>
<glyph d="M92 715h203q47 0 87 -10t69 -32t45 -56t16 -83v-4q0 -121 -122 -155q81 -15 119 -58t38 -116v-4q0 -98 -60 -147.5t-162 -49.5h-233v715zM324 45q85 0 127 38.5t42 113.5v4q0 148 -188 148h-158v-304h177zM296 393q82 0 121.5 35t39.5 103v4q0 70 -42 102.5t-121 32.5 h-147v-277h149z" glyph-name="B" horiz-adv-x="608" unicode="B"/>
<glyph d="M385 -8q-77 0 -138 26t-104.5 73.5t-66.5 114t-23 147.5v8q0 79 25.5 145.5t70.5 115t105.5 75.5t130.5 27q55 0 104 -14.5t87.5 -42.5t64 -70t33.5 -97h-56q-17 87 -74.5 133t-157.5 46q-60 0 -110.5 -23t-87.5 -64.5t-57.5 -100t-20.5 -129.5v-8q0 -72 19 -130.5 t55 -99.5t87 -63t115 -22q97 0 162 49t82 142h52q-10 -58 -36 -102.5t-64.5 -74.5t-88.5 -45.5t-108 -15.5z" glyph-name="C" horiz-adv-x="729" unicode="C"/>
<glyph d="M274 46q76 0 133 23t94.5 64t56 98t18.5 125v8q0 66 -18 122t-55 96.5t-94 63.5t-136 23h-125v-623h126zM92 715h186q88 0 155 -27t111.5 -74t67 -111t22.5 -139v-9q0 -74 -21.5 -139t-66 -113t-112 -75.5t-158.5 -27.5h-184v715z" glyph-name="D" horiz-adv-x="690" unicode="D"/>
<glyph d="M92 715h411v-46h-355v-279h288v-46h-288v-298h373v-46h-429v715z" glyph-name="E" horiz-adv-x="570" unicode="E"/>
<glyph d="M92 715h407v-46h-351v-284h276v-46h-276v-339h-56v715z" glyph-name="F" horiz-adv-x="544" unicode="F"/>
<glyph d="M396 -8q-81 0 -144.5 27t-107.5 75t-67.5 114t-23.5 145v8q0 78 25.5 144.5t71.5 115t108 76t136 27.5q51 0 98.5 -12.5t86 -38.5t65.5 -66t37 -96h-56q-20 89 -82 128.5t-148 39.5q-65 0 -117.5 -23.5t-89.5 -65.5t-57.5 -100t-20.5 -128v-8q0 -71 19 -129.5t55 -100 t89.5 -64t122.5 -22.5q63 0 110 18.5t78.5 52.5t47.5 82t17 107v4h-220v47h274v-41q0 -77 -22 -136t-62.5 -99t-97 -60.5t-125.5 -20.5z" glyph-name="G" horiz-adv-x="760" unicode="G"/>
<glyph d="M92 715h56v-333h421v333h56v-715h-56v335h-421v-335h-56v715z" glyph-name="H" horiz-adv-x="721" unicode="H"/>
<glyph d="M97 715h56v-715h-56v715z" glyph-name="I" horiz-adv-x="254" unicode="I"/>
<glyph d="M137 -7q-38 0 -62 6.5t-38 13.5v47q19 -8 42 -14.5t55 -6.5q60 0 94.5 33t34.5 111v532h56v-534q0 -50 -14 -85.5t-38 -58t-57.5 -33.5t-72.5 -11z" glyph-name="J" horiz-adv-x="405" unicode="J"/>
<glyph d="M92 715h56v-352l347 353h64l-346 -349l363 -367h-68l-360 361v-361h-56v715z" glyph-name="K" horiz-adv-x="603" unicode="K"/>
<glyph d="M92 715h56v-669h347v-46h-403v715z" glyph-name="L" horiz-adv-x="534" unicode="L"/>
<glyph d="M92 715h80l252 -614l253 614h78v-715h-55v645l-269 -645h-18l-269 645v-645h-52v715z" glyph-name="M" horiz-adv-x="855" unicode="M"/>
<glyph d="M92 715h76l400 -638v638h53v-715h-66l-409 653v-653h-54v715z" glyph-name="N" horiz-adv-x="717" unicode="N"/>
<glyph d="M403 39q64 0 117 24t91 66t59 100t21 127v8q0 65 -20.5 122t-58.5 99.5t-91.5 67t-119.5 24.5t-119.5 -24t-91.5 -66t-59 -100t-21 -125v-8q0 -68 22.5 -126t62 -100t93 -65.5t115.5 -23.5zM403 -8q-77 0 -141 28.5t-110.5 77t-72.5 114.5t-26 141v8q0 76 26 142 t72.5 115t110.5 77t139 28q76 0 139.5 -28t110 -76.5t72.5 -114.5t26 -141v-8q0 -76 -26 -142t-72 -115t-109.5 -77.5t-138.5 -28.5z" glyph-name="O" horiz-adv-x="805" unicode="O"/>
<glyph d="M92 715h189q52 0 96.5 -11t77.5 -35t51.5 -62.5t18.5 -92.5v-4q0 -55 -18.5 -94t-51 -63.5t-77 -35.5t-96.5 -11h-134v-306h-56v715zM286 351q87 0 135 38t48 121v4q0 43 -13 73t-37.5 48t-58.5 26t-76 8h-136v-318h138z" glyph-name="P" horiz-adv-x="572" unicode="P"/>
<glyph d="M579 40q-38 -23 -82 -35.5t-94 -12.5q-77 0 -141 28.5t-110.5 77t-72.5 114.5t-26 141v8q0 76 26 142t72.5 115t110.5 77t139 28q76 0 139.5 -28t110 -76.5t72.5 -114.5t26 -141v-8q0 -89 -35 -163.5t-96 -124.5l88 -94l-34 -33zM403 39q80 0 143 37l-101 110l34 33 l106 -116q51 43 78.5 108t27.5 145v8q0 65 -20.5 122t-58.5 99.5t-91.5 67t-119.5 24.5t-119.5 -24t-91.5 -66t-59 -100t-21 -125v-8q0 -68 22.5 -126t62 -100t93 -65.5t115.5 -23.5z" glyph-name="Q" horiz-adv-x="805" unicode="Q"/>
<glyph d="M92 715h196q52 0 96.5 -10.5t77 -33.5t51 -59.5t18.5 -88.5v-4q0 -45 -14 -78t-38.5 -55.5t-58.5 -36t-74 -19.5l227 -330h-62l-224 326h-139v-326h-56v715zM291 371q87 0 135.5 35t48.5 113v4q0 41 -13 69t-37 45t-58 24.5t-76 7.5h-143v-298h143z" glyph-name="R" horiz-adv-x="610" unicode="R"/>
<glyph d="M308 -8q-66 0 -114 17t-80 46t-49 67.5t-23 82.5h55q4 -34 17 -64t37.5 -53t62.5 -36.5t94 -13.5q42 0 76 11.5t58.5 32t37.5 48.5t13 61q0 37 -10 63.5t-32.5 44.5t-59 29.5t-90.5 19.5q-118 17 -174.5 60t-56.5 128q0 42 16.5 76t46 59t71 38.5t91.5 13.5 q100 0 159 -47t71 -133h-51q-13 67 -56 100.5t-123 33.5q-83 0 -128 -36t-45 -101q0 -29 8.5 -52t29.5 -40t57.5 -29.5t92.5 -20.5q60 -9 104.5 -23t74 -37.5t44 -58t14.5 -84.5q0 -42 -17 -79t-48.5 -64.5t-75.5 -43.5t-98 -16z" glyph-name="S" horiz-adv-x="606" unicode="S"/>
<glyph d="M252 669h-222v46h499v-46h-222v-669h-55v669z" glyph-name="T" horiz-adv-x="563" unicode="T"/>
<glyph d="M338 -7q-121 0 -188.5 67t-67.5 196v459h55v-453q0 -115 51 -168.5t151 -53.5q103 0 154.5 54t51.5 181v440h56v-448q0 -128 -65 -201t-198 -73z" glyph-name="U" horiz-adv-x="686" unicode="U"/>
<glyph d="M29 715h55l239 -660l232 660h52l-253 -715h-66z" glyph-name="V" horiz-adv-x="641" unicode="V"/>
<glyph d="M33 715h56l164 -630l189 630h39l182 -632l173 632h51l-196 -715h-54l-176 616l-186 -616h-53z" glyph-name="W" horiz-adv-x="924" unicode="W"/>
<glyph d="M293 370l-226 345h61l200 -303l198 303h58l-228 -346l244 -369h-63l-217 328l-217 -328h-57z" glyph-name="X" horiz-adv-x="650" unicode="X"/>
<glyph d="M268 318l-245 397h62l212 -350l202 350h56l-231 -398v-317h-56v318z" glyph-name="Y" horiz-adv-x="582" unicode="Y"/>
<glyph d="M27 11l443 658h-407v46h485v-10l-437 -657h431v-48h-515v11z" glyph-name="Z" horiz-adv-x="591" unicode="Z"/>
<glyph d="M93 776h206v-43h-153v-838h153v-43h-206v924z" glyph-name="bracketleft" horiz-adv-x="344" unicode="["/>
<glyph d="M37 776h50l291 -924h-50z" glyph-name="backslash" horiz-adv-x="395" unicode="\"/>
<glyph d="M42 -105h152v838h-152v43h205v-924h-205v43z" glyph-name="bracketright" horiz-adv-x="344" unicode="]"/>
<glyph d="M213 715h53l167 -293h-55l-139 245l-140 -245h-53z" glyph-name="asciicircum" horiz-adv-x="482" unicode="^"/>
<glyph d="M-1 -107h391v-44h-391v44z" glyph-name="underscore" horiz-adv-x="393" unicode="_"/>
<glyph d="M92 752h65l68 -147h-41z" glyph-name="grave" unicode="`"/>
<glyph d="M221 -8q-39 0 -71.5 9.5t-56 28t-36.5 46.5t-13 65q0 45 20 75.5t54 49t78.5 26t92.5 7.5h109v47q0 74 -31.5 107t-100.5 33q-60 0 -99 -26.5t-48 -84.5h-52q4 41 22.5 70.5t45.5 48.5t61.5 28t71.5 9q41 0 74.5 -10t57.5 -32.5t37.5 -57.5t13.5 -85v-346h-53v80 q-25 -38 -68 -63t-109 -25zM225 35q36 0 67.5 10t55 28t37 42.5t13.5 53.5v89h-107q-41 0 -76.5 -5t-61.5 -18t-41 -36t-15 -58q0 -51 31.5 -78.5t96.5 -27.5z" glyph-name="a" horiz-adv-x="533" unicode="a"/>
<glyph d="M334 -8q-39 0 -71 11t-57 28.5t-43 40.5t-28 47v-119h-53v773h53v-372q11 25 30.5 48.5t45.5 41.5t57 29t66 11q49 0 92 -18.5t75 -52.5t50 -83t18 -110v-8q0 -62 -17.5 -111t-49 -84t-74.5 -53.5t-94 -18.5zM330 37q83 0 133.5 57t50.5 163v8q0 54 -15 95.5t-40 69 t-59 42t-71 14.5q-38 0 -73.5 -14.5t-62.5 -42t-43 -69t-16 -95.5v-8q0 -54 15.5 -95t42 -68.5t62 -42t76.5 -14.5z" glyph-name="b" horiz-adv-x="616" unicode="b"/>
<glyph d="M293 -8q-53 0 -98.5 19t-79.5 53.5t-53 83t-19 108.5v8q0 60 19.5 109t53.5 84.5t79.5 54.5t97.5 19q40 0 77 -10.5t66.5 -32t49.5 -54.5t25 -77h-52q-5 33 -20 57.5t-37 40t-50 23.5t-59 8q-41 0 -76.5 -15.5t-62 -44t-41.5 -69.5t-15 -93v-8q0 -52 15 -92.5t41 -68.5 t62 -43t77 -15q33 0 62 9.5t52.5 27.5t39 45t20.5 62h49q-5 -42 -24 -77t-48 -59.5t-67.5 -38.5t-83.5 -14z" glyph-name="c" horiz-adv-x="560" unicode="c"/>
<glyph d="M278 -8q-50 0 -93 17.5t-74.5 51t-49.5 82.5t-18 111v8q0 60 18.5 110t51 85t77 54.5t96.5 19.5q39 0 69.5 -10t53.5 -27.5t40 -40t28 -46.5v366h53v-773h-53v121q-11 -24 -29.5 -47t-44 -41t-57 -29.5t-68.5 -11.5zM283 37q40 0 75.5 14.5t62 42t42 69t15.5 95.5v8 q0 54 -14 95t-38.5 69t-59 42t-75.5 14q-42 0 -77.5 -15t-61 -43.5t-40 -69.5t-14.5 -94v-8q0 -54 14.5 -94.5t39 -68.5t58.5 -42t73 -14z" glyph-name="d" horiz-adv-x="616" unicode="d"/>
<glyph d="M291 -8q-57 0 -102.5 19t-78 54t-50 83.5t-17.5 107.5v8q0 59 18 108t49.5 84.5t75.5 55t97 19.5q47 0 89 -15.5t73 -47t49 -79.5t18 -113v-19h-414q2 -106 50.5 -163t142.5 -57q66 0 108 27t56 82h53q-17 -75 -74.5 -114.5t-142.5 -39.5zM457 300q-4 96 -50.5 141 t-123.5 45q-38 0 -70 -13t-56 -37t-38.5 -58.5t-18.5 -77.5h357z" glyph-name="e" horiz-adv-x="558" unicode="e"/>
<glyph d="M105 478h-79v45h79v94q0 82 41 120.5t107 38.5q19 0 31.5 -2t26.5 -7v-45q-11 4 -25 6.5t-31 2.5q-44 0 -70.5 -26t-26.5 -83v-99h146v-45h-146v-478h-53v478z" glyph-name="f" horiz-adv-x="337" unicode="f"/>
<glyph d="M288 -188q-57 0 -98.5 13t-70 34.5t-44.5 50t-21 60.5h54q11 -51 54 -82t125 -31q42 0 77 10t60 31.5t39 56t14 82.5v107q-11 -24 -29.5 -46.5t-44 -40.5t-57 -29t-67.5 -11q-50 0 -93 17.5t-75 50.5t-50 79t-18 103v7q0 56 18.5 103t51 81.5t77 53.5t96.5 19 q39 0 69.5 -10t53.5 -26.5t40 -38.5t28 -46v113h53v-488q0 -58 -18.5 -100t-50.5 -69.5t-76.5 -40.5t-96.5 -13zM284 62q40 0 75 14t61.5 41t42 65.5t15.5 87.5v8q0 49 -14 88t-38.5 65.5t-59 40.5t-75.5 14q-42 0 -77.5 -14.5t-61 -41.5t-40 -66t-14.5 -88v-8 q0 -49 14.5 -87t39.5 -64.5t59 -40.5t73 -14z" glyph-name="g" horiz-adv-x="616" unicode="g"/>
<glyph d="M82 773h53v-352q9 21 26 41t40.5 35.5t53.5 24.5t65 9q42 0 76 -11.5t58.5 -37t38 -65t13.5 -95.5v-322h-53v325q0 84 -37.5 122t-107.5 38q-33 0 -64 -11t-55 -32t-39 -52.5t-15 -72.5v-317h-53v773z" glyph-name="h" horiz-adv-x="587" unicode="h"/>
<glyph d="M84 523h53v-523h-53v523zM110 635q-16 0 -27 11t-11 27q0 15 11 26t27 11t26.5 -11t10.5 -26q0 -16 -10.5 -27t-26.5 -11z" glyph-name="i" horiz-adv-x="225" unicode="i"/>
<glyph d="M7 -143q45 4 61 26.5t16 64.5v575h53v-571q0 -69 -29 -103t-101 -37v45zM110 635q-16 0 -27 11t-11 27q0 15 11 26t27 11t26.5 -11t10.5 -26q0 -16 -10.5 -27t-26.5 -11z" glyph-name="j" horiz-adv-x="225" unicode="j"/>
<glyph d="M82 773h53v-496l255 246h63l-255 -244l272 -279h-66l-269 277v-277h-53v773z" glyph-name="k" horiz-adv-x="491" unicode="k"/>
<glyph d="M84 773h54v-773h-54v773z" glyph-name="l" horiz-adv-x="226" unicode="l"/>
<glyph d="M82 523h53v-99q9 21 25 40.5t37.5 34.5t49 23.5t59.5 8.5q59 0 101 -27t59 -90q25 56 75.5 86.5t110.5 30.5q38 0 70 -11t55.5 -35t36.5 -63t13 -95v-327h-53v330q0 84 -34 119.5t-97 35.5q-30 0 -59 -10.5t-52 -31.5t-37 -52t-14 -72v-319h-53v330q0 84 -34 119.5 t-97 35.5q-30 0 -59 -10.5t-52 -31.5t-37 -52t-14 -72v-319h-53v523z" glyph-name="m" horiz-adv-x="908" unicode="m"/>
<glyph d="M82 523h53v-102q9 21 26 41t40.5 35.5t53.5 24.5t65 9q42 0 76 -11.5t58.5 -37t38 -65t13.5 -95.5v-322h-53v325q0 84 -37.5 122t-107.5 38q-33 0 -64 -11t-55 -32t-39 -52.5t-15 -72.5v-317h-53v523z" glyph-name="n" horiz-adv-x="587" unicode="n"/>
<glyph d="M296 37q42 0 78 15.5t62.5 44t41.5 69t15 91.5v8q0 52 -15 93t-41.5 69.5t-62.5 43.5t-78 15t-78 -15.5t-63 -44t-42 -69.5t-15 -92v-8q0 -50 15 -91t41.5 -69.5t62.5 -44t79 -15.5zM295 -8q-53 0 -99 19.5t-80 55t-53.5 84t-19.5 106.5v8q0 59 20 108t54 84t80 54.5 t99 19.5t99 -19t80 -54t53.5 -83.5t19.5 -108.5v-8q0 -59 -19.5 -108t-54 -84t-80.5 -54.5t-99 -19.5z" glyph-name="o" horiz-adv-x="595" unicode="o"/>
<glyph d="M82 523h53v-122q11 25 30.5 48.5t45.5 41.5t57 29t66 11q49 0 92 -18.5t75 -52.5t50 -83t18 -110v-8q0 -62 -17.5 -111t-49 -84t-74.5 -53.5t-94 -18.5q-39 0 -71 11t-57 28.5t-43 40.5t-28 47v-301h-53v705zM330 37q83 0 133.5 57t50.5 163v8q0 54 -15 95.5t-40 69 t-59 42t-71 14.5q-38 0 -73.5 -14.5t-62.5 -42t-43 -69t-16 -95.5v-8q0 -54 15.5 -95t42 -68.5t62 -42t76.5 -14.5z" glyph-name="p" horiz-adv-x="616" unicode="p"/>
<glyph d="M477 121q-11 -24 -29.5 -47t-44 -41t-57 -29.5t-68.5 -11.5q-50 0 -93 17.5t-74.5 51t-49.5 82.5t-18 111v8q0 60 18.5 110t51 85t77 54.5t96.5 19.5q39 0 69.5 -10t53.5 -27.5t40 -40t28 -46.5v116h53v-705h-53v303zM283 37q40 0 75.5 14.5t62 42t42 69t15.5 95.5v8 q0 54 -14 95t-38.5 69t-59 42t-75.5 14q-42 0 -77.5 -15t-61 -43.5t-40 -69.5t-14.5 -94v-8q0 -54 14.5 -94.5t39 -68.5t58.5 -42t73 -14z" glyph-name="q" horiz-adv-x="616" unicode="q"/>
<glyph d="M82 523h53v-110q22 48 63.5 81.5t113.5 35.5v-50q-38 -2 -70.5 -12t-56 -32.5t-37 -58t-13.5 -87.5v-290h-53v523z" glyph-name="r" horiz-adv-x="352" unicode="r"/>
<glyph d="M239 -9q-93 0 -144.5 45t-56.5 120h51q7 -54 42 -87t108 -33q66 0 99.5 27.5t33.5 75.5q0 25 -7.5 42t-24 29t-42.5 20t-63 15q-48 9 -82 20t-56 28t-32 40.5t-10 57.5q0 33 14.5 59t38.5 44t55 27.5t64 9.5q35 0 66 -7.5t55 -24.5t40 -44t21 -66h-51q-10 51 -42.5 74 t-89.5 23q-55 0 -88.5 -25.5t-33.5 -67.5q0 -23 7.5 -38.5t24 -27t44 -20t67.5 -15.5q42 -8 74.5 -17.5t55 -26t34.5 -42t12 -63.5q0 -66 -47 -109t-137 -43z" glyph-name="s" horiz-adv-x="469" unicode="s"/>
<glyph d="M230 -7q-63 0 -95.5 35t-32.5 98v352h-77v45h77v119h53v-119h137v-45h-137v-348q0 -48 21 -70t57 -22q20 0 36 3t30 8v-45q-13 -5 -29 -8t-40 -3z" glyph-name="t" horiz-adv-x="342" unicode="t"/>
<glyph d="M261 -8q-41 0 -74.5 11t-58 35t-38 62t-13.5 92v331h53v-328q0 -84 37 -120.5t106 -36.5q32 0 62.5 10.5t54.5 31.5t39 52.5t15 72.5v318h53v-523h-53v100q-9 -21 -26 -40.5t-40 -34.5t-53 -24t-64 -9z" glyph-name="u" horiz-adv-x="583" unicode="u"/>
<glyph d="M25 523h58l178 -470l177 470h54l-197 -523h-69z" glyph-name="v" horiz-adv-x="522" unicode="v"/>
<glyph d="M29 523h57l140 -458l143 458h45l138 -458l141 458h54l-165 -523h-61l-130 438l-139 -438h-60z" glyph-name="w" horiz-adv-x="780" unicode="w"/>
<glyph d="M223 270l-182 253h63l151 -213l149 213h59l-179 -249l198 -274h-63l-166 234l-166 -234h-58z" glyph-name="x" horiz-adv-x="515" unicode="x"/>
<glyph d="M232 45l-207 478h57l179 -417l167 417h54l-290 -705h-55z" glyph-name="y" horiz-adv-x="512" unicode="y"/>
<glyph d="M24 9l340 469h-310v45h393v-10l-337 -466h330v-47h-416v9z" glyph-name="z" horiz-adv-x="478" unicode="z"/>
<glyph d="M321 -148q-51 0 -90 10.5t-62.5 34t-31.5 61.5t3 93l22 114q5 26 1.5 49.5t-17.5 41t-39.5 28t-64.5 10.5v40q39 0 64.5 10.5t39.5 28t17.5 41t-1.5 49.5l-22 114q-11 55 -3 93t31.5 61.5t62.5 34t90 10.5v-42q-39 0 -67.5 -7.5t-45.5 -25t-21.5 -47.5t3.5 -76l23 -120 q11 -63 -16 -97.5t-78 -46.5q51 -12 78 -46.5t16 -97.5l-23 -120q-8 -46 -3.5 -76t21.5 -47.5t45.5 -25t67.5 -7.5v-42v0z" glyph-name="braceleft" horiz-adv-x="367" unicode="{"/>
<glyph d="M98 776h45v-924h-45v924z" glyph-name="bar" horiz-adv-x="245" unicode="|"/>
<glyph d="M42 -106q39 0 67 7.5t45 25t22 47.5t-4 76l-22 120q-11 63 16 97.5t78 46.5q-51 12 -78 46.5t-16 97.5l22 120q9 46 4 76t-22 47.5t-45 25t-67 7.5v42q51 0 90 -10.5t62.5 -34t31 -61.5t-2.5 -93l-23 -114q-5 -26 -1.5 -49.5t17.5 -41t40 -28t65 -10.5v-40 q-39 0 -65 -10.5t-40 -28t-17.5 -41t1.5 -49.5l23 -114q10 -55 2.5 -93t-31 -61.5t-62.5 -34t-90 -10.5v42z" glyph-name="braceright" horiz-adv-x="367" unicode="}"/>
<glyph d="M46 232q5 52 32 81t65 29q24 0 44.5 -9.5t38.5 -20.5t34.5 -20.5t32.5 -9.5q22 0 37 17t17 45h44q-5 -54 -31.5 -82t-62.5 -28q-25 0 -46 9.5t-39 20.5t-34.5 20.5t-32.5 9.5q-22 0 -36.5 -17.5t-18.5 -44.5h-44v0z" glyph-name="asciitilde" horiz-adv-x="442" unicode="~"/>
<glyph glyph-name="uni00A0" horiz-adv-x="284" unicode=" "/>
<glyph d="M136.008 603q17.999 0 30.499 -12.5q12.499 -12.499 12.499 -29.498q0 -17.999 -12.499 -30.498q-12.5 -12.499 -30.499 -12.499q-16.998 0 -29.498 12.499q-12.499 12.499 -12.499 30.498q0 16.999 12.499 29.498q12.5 12.5 29.498 12.5zM165.007 -116.956h-58.9971 l8 535.967h41.9971z" glyph-name="exclamdown" horiz-adv-x="276" unicode="¡"/>
<glyph d="M270 -7q-49 4 -90.5 23.5t-72 53.5t-47.5 81t-17 105v8q0 58 17.5 105.5t48.5 82t72 54.5t89 24v99h40v-99q37 -2 71.5 -14t61.5 -33.5t45 -52.5t23 -73h-52q-9 61 -50.5 92t-98.5 36v-447q30 2 56.5 12.5t47.5 28.5t34.5 43.5t18.5 58.5h49q-5 -40 -22.5 -73t-44.5 -58 t-62.5 -39.5t-76.5 -17.5v-128h-40v128zM98 256q0 -50 13 -89t36 -66.5t54.5 -43.5t68.5 -19v447q-37 -4 -68.5 -20.5t-54.5 -44.5t-36 -67.5t-13 -88.5v-8z" glyph-name="cent" horiz-adv-x="557" unicode="¢"/>
<glyph d="M49 368h71q-10 34 -17 70.5t-7 80.5q0 46 16.5 83.5t45 64.5t68 41.5t86.5 14.5q97 0 150 -50.5t61 -132.5h-54q-11 66 -46.5 101t-110.5 35q-35 0 -64.5 -11.5t-50.5 -32t-32.5 -49.5t-11.5 -64q0 -44 7 -80t16 -71h229v-41h-218q8 -31 13.5 -64t5.5 -73q0 -23 -5 -43 t-13 -38q28 -5 56 -16t55 -23t52.5 -21t49.5 -9q46 0 73 25t30 79h48q-5 -69 -43 -110.5t-103 -41.5q-35 0 -66.5 11.5t-61.5 25t-57.5 25t-52.5 11.5q-35 0 -54.5 -19.5t-23.5 -45.5h-48q2 16 8.5 33.5t18 32.5t28 26t39.5 16q9 17 14.5 37.5t5.5 45.5q0 37 -7 70t-17 66 h-83v41z" glyph-name="sterling" horiz-adv-x="593" unicode="£"/>
<glyph d="M73 344h171l-216 371h60l195 -340l183 340h54l-203 -371h171v-39h-180v-97h180v-39h-180v-169h-54v169h-181v39h181v97h-181v39z" glyph-name="yen" horiz-adv-x="552" unicode="¥"/>
<glyph d="M98 297h45v-445h-45v445zM98 776h45v-409h-45v409z" glyph-name="brokenbar" horiz-adv-x="248" unicode="¦"/>
<glyph d="M266 -137q-79 0 -130 39.5t-55 113.5h55q5 -51 37 -79t92 -28q61 0 90.5 30t29.5 77q0 26 -7.5 45t-25.5 33.5t-47.5 26t-73.5 22.5q-41 11 -75 24.5t-58.5 32t-38 45t-13.5 62.5q0 53 36.5 88t91.5 49q-34 21 -52 49.5t-18 78.5q0 34 13.5 62t37 48t54 31t64.5 11 q77 0 121 -38t49 -108h-54q-5 48 -30.5 74t-84.5 26q-54 0 -86 -28.5t-32 -76.5q0 -25 7 -43t23.5 -32.5t45 -26t70.5 -23.5t76 -25t59 -32t38.5 -45.5t13.5 -63.5q0 -51 -33 -86t-89 -50q35 -20 52.5 -51t17.5 -78q0 -33 -12.5 -61.5t-35 -49t-54 -32t-69.5 -11.5zM325 169 q54 12 82.5 38.5t28.5 71.5q0 50 -37.5 74.5t-107.5 44.5l-77 23q-50 -9 -82.5 -37t-32.5 -73q0 -26 10 -44t29 -31.5t46.5 -23.5t62.5 -20z" glyph-name="section" horiz-adv-x="539" unicode="§"/>
<glyph d="M117 636q-16 0 -26.5 11t-10.5 26t10.5 25.5t26.5 10.5q15 0 25.5 -10.5t10.5 -25.5t-10.5 -26t-25.5 -11zM283 636q-15 0 -25.5 11t-10.5 26t10.5 25.5t25.5 10.5q16 0 26.5 -10.5t10.5 -25.5t-10.5 -26t-26.5 -11z" glyph-name="dieresis" unicode="¨"/>
<glyph d="M424 151q-45 0 -81.5 14.5t-61.5 41.5t-38.5 65t-13.5 84v7q0 46 15 83.5t41 64.5t61.5 42t76.5 15q67 0 114.5 -33.5t56.5 -99.5h-52q-17 91 -119 91q-31 0 -56.5 -11.5t-44 -32.5t-29 -51.5t-10.5 -67.5v-6q0 -76 37.5 -119.5t103.5 -43.5q50 0 83.5 25.5t41.5 73.5h49 q-9 -69 -57 -105.5t-117 -36.5zM421 23q67 0 127.5 25t105.5 70t71.5 106.5t26.5 134.5q0 72 -25.5 133t-70 105.5t-104.5 69.5t-129 25t-129 -25t-105 -70t-71 -106.5t-26 -133.5q0 -73 26.5 -134.5t71.5 -105.5t105 -69t126 -25zM421 -9q-76 0 -143 28t-116.5 77.5 t-78 116t-28.5 144.5q0 76 28.5 143t78 117t117 78.5t144.5 28.5q78 0 145 -28.5t116 -78t77 -116t28 -142.5q0 -78 -28.5 -145.5t-78 -117t-117 -77.5t-144.5 -28z" glyph-name="copyright" horiz-adv-x="848" unicode="©"/>
<glyph d="M176 302q-60 0 -99.5 29t-39.5 88q0 36 15.5 60t42.5 38.5t62 20.5t74 6h81v33q0 54 -23.5 79t-75.5 25q-45 0 -72.5 -19.5t-35.5 -60.5h-50q3 31 17.5 54t36 38t49.5 22.5t58 7.5q66 0 106 -34t40 -112v-268h-50v60q-19 -29 -52 -48t-84 -19zM184 342q27 0 50 7.5 t40.5 20.5t27.5 31.5t10 40.5v65h-79q-31 0 -57.5 -4t-46 -13.5t-30.5 -26.5t-11 -43q0 -38 23.5 -58t72.5 -20z" glyph-name="ordfeminine" horiz-adv-x="422" unicode="ª"/>
<glyph d="M54 261l135 178h54l-132 -178l132 -178h-54zM212 261l135 178h54l-132 -178l132 -178h-54z" glyph-name="guillemotleft" horiz-adv-x="452" unicode="«"/>
<glyph d="M183 621h75q38 0 60.5 -16.5t22.5 -50.5v-1q0 -26 -14 -41t-37 -20l65 -99h-41l-61 93h-33v-93h-37v228zM257 514q48 0 48 38v1q0 21 -12.5 30t-35.5 9h-37v-78h37zM257 310q40 0 75 14.5t61 40t40.5 61t14.5 77.5t-14.5 77.5t-40 61.5t-60.5 40.5t-76 14.5t-76 -14.5 t-60.5 -41t-40 -62t-14.5 -77.5t15 -77.5t40.5 -61t60.5 -39.5t75 -14zM257 282q-46 0 -86.5 17t-70.5 46.5t-47.5 69.5t-17.5 87q0 46 17 86.5t47 70.5t70.5 47.5t87.5 17.5t87.5 -17t70.5 -47t47 -70.5t17 -86.5q0 -47 -17.5 -87.5t-47.5 -70t-70.5 -46.5t-86.5 -17z" glyph-name="registered" horiz-adv-x="518" unicode="®"/>
<glyph d="M79 689h242v-42h-242v42z" glyph-name="macron" unicode="¯"/>
<glyph d="M204 466q22 0 41.5 8.5t33 23t21.5 34.5t8 43t-8 43t-21.5 35t-33 23.5t-41.5 8.5q-23 0 -42.5 -8.5t-33.5 -23.5t-22 -35t-8 -43q0 -46 30 -77.5t76 -31.5zM204 427q-32 0 -60 11.5t-48.5 32t-32.5 47.5t-12 57q0 31 12 58t32.5 47t48.5 32t60 12q31 0 59 -12t48.5 -32 t32.5 -47t12 -58q0 -30 -12 -57t-32.5 -47.5t-48.5 -32t-59 -11.5z" glyph-name="degree" horiz-adv-x="411" unicode="°"/>
<glyph d="M231 330h-195v45h195v199h48v-199h195v-45h-195v-199h-48v199zM36 45h438v-45h-438v45z" glyph-name="plusminus" horiz-adv-x="514" unicode="±"/>
<glyph d="M15 381l130 131q31 32 46.5 56.5t15.5 51.5q0 30 -18 47t-48 17q-33 0 -51.5 -20t-23.5 -58h-41q3 54 34.5 83.5t82.5 29.5t80 -27t29 -71q0 -35 -18 -63.5t-54 -63.5l-90 -87h166v-35h-240v9z" glyph-name="twosuperior" horiz-adv-x="291" unicode="²"/>
<glyph d="M153 368q-60 0 -93.5 29.5t-35.5 75.5h41q4 -29 24.5 -50t62.5 -21q38 0 58 17.5t20 49.5q0 29 -19 47t-54 18h-27v33h25q34 0 50 16.5t16 42.5t-17.5 42.5t-49.5 16.5q-35 0 -54 -18.5t-23 -47.5h-40q3 42 33.5 71t84.5 29q51 0 80 -26t29 -65q0 -29 -16.5 -48 t-42.5 -27q30 -7 50 -28.5t20 -56.5q0 -48 -33 -74t-89 -26z" glyph-name="threesuperior" horiz-adv-x="312" unicode="³"/>
<glyph d="M243 752h65l-92 -147h-41z" glyph-name="acute" unicode="´"/>
<glyph d="M271 353h-14q-47 0 -85.5 11t-67 33t-44 55.5t-15.5 77.5q0 47 16 81.5t44.5 57.5t67.5 34.5t84 11.5h208v-815h-46v777h-103v-777h-45v453z" glyph-name="paragraph" horiz-adv-x="563" unicode="¶"/>
<glyph d="M114 281q-17 0 -29.5 12.5t-12.5 30.5q0 17 12.5 29.5t29.5 12.5q18 0 30.5 -12.5t12.5 -29.5q0 -18 -12.5 -30.5t-30.5 -12.5z" glyph-name="periodcentered" horiz-adv-x="233" unicode="·"/>
<glyph d="M210 -212q-41 0 -66.5 21.5t-29.5 56.5h44q3 -17 15.5 -29.5t34.5 -12.5q23 0 36.5 12t13.5 32q0 22 -14 30.5t-31 8.5q-13 0 -22 -3t-14 -5l-26 21l45 80h43l-35 -61q18 4 36.5 1.5t32.5 -11.5t23 -24.5t9 -38.5q0 -38 -28 -58t-67 -20z" glyph-name="cedilla" unicode="¸"/>
<glyph d="M109 668l-88 -61v41l96 67h37v-343h-45v296z" glyph-name="onesuperior" horiz-adv-x="221" unicode="¹"/>
<glyph d="M238 344q31 0 58 11.5t46.5 33t30.5 52.5t11 69v6q0 38 -11 68.5t-30.5 51.5t-46.5 32.5t-58 11.5t-58 -11.5t-46.5 -33t-31 -52t-11.5 -68.5v-6q0 -38 11 -68t30.5 -52t46.5 -33.5t59 -11.5zM237 302q-42 0 -78 15t-63 42.5t-42 65.5t-15 84v6q0 47 15.5 85t42.5 65 t63 42t78 15t78 -14.5t63 -41.5t42 -65t15 -85v-6q0 -48 -15.5 -86.5t-42 -65.5t-63 -41.5t-78.5 -14.5z" glyph-name="ordmasculine" horiz-adv-x="479" unicode="º"/>
<glyph d="M179 261l-132 178h54l135 -178l-135 -178h-54zM337 261l-132 178h54l135 -178l-135 -178h-54z" glyph-name="guillemotright" horiz-adv-x="452" unicode="»"/>
<glyph d="M112 668l-88 -61v41l96 67h37v-343h-45v296zM543 74h-178v15l164 254h57v-235h47v-34h-47v-74h-43v74zM544 108v201l-128 -201h128zM561 715h45l-516 -715h-45z" glyph-name="onequarter" horiz-adv-x="665" unicode="¼"/>
<glyph d="M113 668l-88 -61v41l96 67h37v-343h-45v296zM389 9l130 131q31 32 46.5 56.5t15.5 51.5q0 30 -18 47t-48 17q-33 0 -51.5 -20t-23.5 -58h-41q3 54 34.5 83.5t82.5 29.5t80 -27t29 -71q0 -35 -18 -63.5t-54 -63.5l-90 -87h166v-35h-240v9zM545 715h45l-516 -715h-45z" glyph-name="onehalf" horiz-adv-x="669" unicode="½"/>
<glyph d="M156 368q-60 0 -93.5 29.5t-35.5 75.5h41q4 -29 24.5 -50t62.5 -21q38 0 58 17.5t20 49.5q0 29 -19 47t-54 18h-27v33h25q34 0 50 16.5t16 42.5t-17.5 42.5t-49.5 16.5q-35 0 -54 -18.5t-23 -47.5h-40q3 42 33.5 71t84.5 29q51 0 80 -26t29 -65q0 -29 -16.5 -48 t-42.5 -27q30 -7 50 -28.5t20 -56.5q0 -48 -33 -74t-89 -26zM553 74h-178v15l164 254h57v-235h47v-34h-47v-74h-43v74zM554 108v201l-128 -201h128zM602 715h45l-516 -715h-45z" glyph-name="threequarters" horiz-adv-x="679" unicode="¾"/>
<glyph d="M288.012 362.015q0 -29.998 -8 -53.9971q-7.99902 -23.998 -21.498 -44.9971q-13.5 -20.999 -31.498 -39.998q-17.999 -18.998 -38.998 -39.9971q-16.999 -16.999 -32.498 -32.998t-26.998 -33.498q-11.5 -17.499 -18.499 -36.498q-7 -18.998 -7 -42.9971 q0 -50.9971 31.498 -83.9951t98.4941 -32.998q65.9961 0 107.493 39.998q41.498 39.9971 47.4971 109.993h50.9971q-3 -43.9971 -18.999 -79.9951t-42.9971 -61.4961q-26.998 -25.499 -63.9961 -39.498t-80.9951 -13.999q-46.9971 0 -81.4951 12.999 q-34.498 13 -57.4961 34.998q-22.999 21.999 -33.998 50.9971t-10.999 60.9961q0 29.998 8.49902 53.9971q8.5 23.998 22.999 43.9971t32.998 38.998q18.499 18.998 38.4971 38.9971q18.999 18.999 35.498 35.998t28.498 34.998q12 17.999 18.499 38.4971 q6.5 20.499 6.5 45.4971v52.9971h47.9971v-56.9961zM265.013 603q17.999 0 30.498 -12.5q12.499 -12.499 12.499 -29.498q0 -17.999 -12.499 -30.498t-30.498 -12.499q-16.999 0 -29.498 12.499t-12.499 30.498q0 16.999 12.499 29.498q12.499 12.5 29.498 12.5z" glyph-name="questiondown" horiz-adv-x="481" unicode="¿"/>
<glyph d="M290 715h74l257 -715h-56l-79 219h-322l-78 -219h-53zM180 264h290l-145 405zM220 893h66l64 -122h-42z" glyph-name="Agrave" horiz-adv-x="658" unicode="À"/>
<glyph d="M290 715h74l257 -715h-56l-79 219h-322l-78 -219h-53zM180 264h290l-145 405zM359 893h66l-88 -122h-42z" glyph-name="Aacute" horiz-adv-x="658" unicode="Á"/>
<glyph d="M290 715h74l257 -715h-56l-79 219h-322l-78 -219h-53zM180 264h290l-145 405zM299 893h50l108 -122h-42l-92 78l-93 -78h-41z" glyph-name="Acircumflex" horiz-adv-x="658" unicode="Â"/>
<glyph d="M290 715h74l257 -715h-56l-79 219h-322l-78 -219h-53zM180 264h290l-145 405zM385 774q-18 0 -34.5 8.5t-32 18t-29.5 18t-27 8.5q-17 0 -29.5 -14t-16.5 -40h-41q6 48 30 73.5t57 25.5q18 0 34 -8.5t31.5 -18t29.5 -18t28 -8.5q17 0 29.5 14t16.5 40h40 q-6 -48 -30 -73.5t-56 -25.5z" glyph-name="Atilde" horiz-adv-x="658" unicode="Ã"/>
<glyph d="M290 715h74l257 -715h-56l-79 219h-322l-78 -219h-53zM180 264h290l-145 405zM233 788q-16 0 -26.5 11t-10.5 26q0 14 10.5 25t26.5 11q15 0 25.5 -11t10.5 -25q0 -15 -10.5 -26t-25.5 -11zM413 788q-15 0 -25.5 11t-10.5 26q0 14 10.5 25t25.5 11t25.5 -11t10.5 -25 q0 -15 -10.5 -26t-25.5 -11z" glyph-name="Adieresis" horiz-adv-x="658" unicode="Ä"/>
<glyph d="M290 715h74l257 -715h-56l-79 219h-322l-78 -219h-53zM180 264h290l-145 405zM323 786q26 0 43.5 18.5t17.5 45.5t-17.5 45.5t-43.5 18.5t-43.5 -18.5t-17.5 -45.5t17.5 -45.5t43.5 -18.5zM323 754q-20 0 -37.5 7.5t-31 21t-21.5 30.5t-8 37q0 19 8 36.5t21.5 30.5 t31 20.5t37.5 7.5t38 -7.5t31.5 -20.5t21 -30.5t7.5 -36.5q0 -20 -7.5 -37t-21 -30.5t-31.5 -21t-38 -7.5z" glyph-name="Aring" horiz-adv-x="658" unicode="Å"/>
<glyph d="M392 715h491v-46h-355v-279h288v-46h-288v-298h373v-46h-429v220h-276l-110 -220h-57zM218 264h254v405h-51z" glyph-name="AE" horiz-adv-x="950" unicode="Æ"/>
<glyph d="M371 -212q-41 0 -66.5 21.5t-29.5 56.5h44q3 -17 15.5 -29.5t34.5 -12.5q23 0 36.5 12t13.5 32q0 22 -14 30.5t-31 8.5q-13 0 -22 -3t-14 -5l-26 21l41 73q-70 5 -125.5 33t-94.5 75t-59.5 111t-20.5 141v8q0 79 25.5 145.5t70.5 115t105.5 75.5t130.5 27q55 0 104 -14.5 t87.5 -42.5t64 -70t33.5 -97h-56q-17 87 -74.5 133t-157.5 46q-60 0 -110.5 -23t-87.5 -64.5t-57.5 -100t-20.5 -129.5v-8q0 -72 19 -130.5t55 -99.5t87 -63t115 -22q97 0 162 49t82 142h52q-10 -57 -35 -100.5t-62.5 -73.5t-85.5 -46.5t-104 -17.5l-30 -53q18 4 36.5 1.5 t32.5 -11.5t23 -24.5t9 -38.5q0 -38 -28 -58t-67 -20z" glyph-name="Ccedilla" horiz-adv-x="729" unicode="Ç"/>
<glyph d="M92 715h411v-46h-355v-279h288v-46h-288v-298h373v-46h-429v715zM196 893h66l64 -122h-42z" glyph-name="Egrave" horiz-adv-x="570" unicode="È"/>
<glyph d="M92 715h411v-46h-355v-279h288v-46h-288v-298h373v-46h-429v715zM335 893h66l-88 -122h-42z" glyph-name="Eacute" horiz-adv-x="570" unicode="É"/>
<glyph d="M92 715h411v-46h-355v-279h288v-46h-288v-298h373v-46h-429v715zM275 893h50l108 -122h-42l-92 78l-93 -78h-41z" glyph-name="Ecircumflex" horiz-adv-x="570" unicode="Ê"/>
<glyph d="M92 715h411v-46h-355v-279h288v-46h-288v-298h373v-46h-429v715zM209 788q-16 0 -26.5 11t-10.5 26q0 14 10.5 25t26.5 11q15 0 25.5 -11t10.5 -25q0 -15 -10.5 -26t-25.5 -11zM389 788q-15 0 -25.5 11t-10.5 26q0 14 10.5 25t25.5 11t25.5 -11t10.5 -25q0 -15 -10.5 -26 t-25.5 -11z" glyph-name="Edieresis" horiz-adv-x="570" unicode="Ë"/>
<glyph d="M97 715h56v-715h-56v715zM22 893h66l64 -122h-42z" glyph-name="Igrave" horiz-adv-x="254" unicode="Ì"/>
<glyph d="M97 715h56v-715h-56v715zM161 893h66l-88 -122h-42z" glyph-name="Iacute" horiz-adv-x="254" unicode="Í"/>
<glyph d="M97 715h56v-715h-56v715zM101 893h50l108 -122h-42l-92 78l-93 -78h-41z" glyph-name="Icircumflex" horiz-adv-x="254" unicode="Î"/>
<glyph d="M97 715h56v-715h-56v715zM35 788q-16 0 -26.5 11t-10.5 26q0 14 10.5 25t26.5 11q15 0 25.5 -11t10.5 -25q0 -15 -10.5 -26t-25.5 -11zM215 788q-15 0 -25.5 11t-10.5 26q0 14 10.5 25t25.5 11t25.5 -11t10.5 -25q0 -15 -10.5 -26t-25.5 -11z" glyph-name="Idieresis" horiz-adv-x="254" unicode="Ï"/>
<glyph d="M28 381h75v334h185q89 0 155.5 -27t111 -74t67 -111t22.5 -139v-9q0 -74 -21.5 -139t-65.5 -113t-111.5 -75.5t-159.5 -27.5h-183v337h-75v44zM284 46q76 0 133 23t95 64t56.5 98t18.5 125v8q0 66 -18 122t-55 96.5t-94.5 63.5t-136.5 23h-124v-288h208v-44h-208v-291 h125z" glyph-name="Eth" horiz-adv-x="701" unicode="Ð"/>
<glyph d="M92 715h76l400 -638v638h53v-715h-66l-409 653v-653h-54v715zM429 774q-18 0 -34.5 8.5t-32 18t-29.5 18t-27 8.5q-17 0 -29.5 -14t-16.5 -40h-41q6 48 30 73.5t57 25.5q18 0 34 -8.5t31.5 -18t29.5 -18t28 -8.5q17 0 29.5 14t16.5 40h40q-6 -48 -30 -73.5t-56 -25.5z " glyph-name="Ntilde" horiz-adv-x="717" unicode="Ñ"/>
<glyph d="M403 39q64 0 117 24t91 66t59 100t21 127v8q0 65 -20.5 122t-58.5 99.5t-91.5 67t-119.5 24.5t-119.5 -24t-91.5 -66t-59 -100t-21 -125v-8q0 -68 22.5 -126t62 -100t93 -65.5t115.5 -23.5zM403 -8q-77 0 -141 28.5t-110.5 77t-72.5 114.5t-26 141v8q0 76 26 142 t72.5 115t110.5 77t139 28q76 0 139.5 -28t110 -76.5t72.5 -114.5t26 -141v-8q0 -76 -26 -142t-72 -115t-109.5 -77.5t-138.5 -28.5zM297 893h66l64 -122h-42z" glyph-name="Ograve" horiz-adv-x="805" unicode="Ò"/>
<glyph d="M403 39q64 0 117 24t91 66t59 100t21 127v8q0 65 -20.5 122t-58.5 99.5t-91.5 67t-119.5 24.5t-119.5 -24t-91.5 -66t-59 -100t-21 -125v-8q0 -68 22.5 -126t62 -100t93 -65.5t115.5 -23.5zM403 -8q-77 0 -141 28.5t-110.5 77t-72.5 114.5t-26 141v8q0 76 26 142 t72.5 115t110.5 77t139 28q76 0 139.5 -28t110 -76.5t72.5 -114.5t26 -141v-8q0 -76 -26 -142t-72 -115t-109.5 -77.5t-138.5 -28.5zM436 893h66l-88 -122h-42z" glyph-name="Oacute" horiz-adv-x="805" unicode="Ó"/>
<glyph d="M403 39q64 0 117 24t91 66t59 100t21 127v8q0 65 -20.5 122t-58.5 99.5t-91.5 67t-119.5 24.5t-119.5 -24t-91.5 -66t-59 -100t-21 -125v-8q0 -68 22.5 -126t62 -100t93 -65.5t115.5 -23.5zM403 -8q-77 0 -141 28.5t-110.5 77t-72.5 114.5t-26 141v8q0 76 26 142 t72.5 115t110.5 77t139 28q76 0 139.5 -28t110 -76.5t72.5 -114.5t26 -141v-8q0 -76 -26 -142t-72 -115t-109.5 -77.5t-138.5 -28.5zM376 893h50l108 -122h-42l-92 78l-93 -78h-41z" glyph-name="Ocircumflex" horiz-adv-x="805" unicode="Ô"/>
<glyph d="M403 39q64 0 117 24t91 66t59 100t21 127v8q0 65 -20.5 122t-58.5 99.5t-91.5 67t-119.5 24.5t-119.5 -24t-91.5 -66t-59 -100t-21 -125v-8q0 -68 22.5 -126t62 -100t93 -65.5t115.5 -23.5zM403 -8q-77 0 -141 28.5t-110.5 77t-72.5 114.5t-26 141v8q0 76 26 142 t72.5 115t110.5 77t139 28q76 0 139.5 -28t110 -76.5t72.5 -114.5t26 -141v-8q0 -76 -26 -142t-72 -115t-109.5 -77.5t-138.5 -28.5zM462 774q-18 0 -34.5 8.5t-32 18t-29.5 18t-27 8.5q-17 0 -29.5 -14t-16.5 -40h-41q6 48 30 73.5t57 25.5q18 0 34 -8.5t31.5 -18t29.5 -18 t28 -8.5q17 0 29.5 14t16.5 40h40q-6 -48 -30 -73.5t-56 -25.5z" glyph-name="Otilde" horiz-adv-x="805" unicode="Õ"/>
<glyph d="M403 39q64 0 117 24t91 66t59 100t21 127v8q0 65 -20.5 122t-58.5 99.5t-91.5 67t-119.5 24.5t-119.5 -24t-91.5 -66t-59 -100t-21 -125v-8q0 -68 22.5 -126t62 -100t93 -65.5t115.5 -23.5zM403 -8q-77 0 -141 28.5t-110.5 77t-72.5 114.5t-26 141v8q0 76 26 142 t72.5 115t110.5 77t139 28q76 0 139.5 -28t110 -76.5t72.5 -114.5t26 -141v-8q0 -76 -26 -142t-72 -115t-109.5 -77.5t-138.5 -28.5zM310 788q-16 0 -26.5 11t-10.5 26q0 14 10.5 25t26.5 11q15 0 25.5 -11t10.5 -25q0 -15 -10.5 -26t-25.5 -11zM490 788q-15 0 -25.5 11 t-10.5 26q0 14 10.5 25t25.5 11t25.5 -11t10.5 -25q0 -15 -10.5 -26t-25.5 -11z" glyph-name="Odieresis" horiz-adv-x="805" unicode="Ö"/>
<glyph d="M45 174l161 160l-161 161l31 32l161 -161l161 161l31 -32l-161 -161l161 -160l-31 -31l-161 160l-161 -160z" glyph-name="multiply" horiz-adv-x="487" unicode="×"/>
<glyph d="M41 5l97 107q-41 48 -63 109.5t-22 131.5v8q0 76 26 142t72.5 115t110.5 77t139 28q65 0 120.5 -20.5t100.5 -57.5l85 94l29 -30l-84 -92q46 -49 71.5 -114t25.5 -140v-8q0 -76 -26 -142t-72 -115t-109.5 -77.5t-138.5 -28.5q-71 0 -131 24t-105 66l-96 -106zM403 39 q64 0 117 24t91 66t59 100t21 127v8q0 65 -19 119.5t-54 96.5l-417 -461q39 -38 90.5 -59t111.5 -21zM110 354q0 -61 16.5 -112t46.5 -91l416 458q-36 32 -83.5 50t-104.5 18q-66 0 -119.5 -24t-91.5 -66t-59 -100t-21 -125v-8z" glyph-name="Oslash" horiz-adv-x="805" unicode="Ø"/>
<glyph d="M338 -7q-121 0 -188.5 67t-67.5 196v459h55v-453q0 -115 51 -168.5t151 -53.5q103 0 154.5 54t51.5 181v440h56v-448q0 -128 -65 -201t-198 -73zM238 893h66l64 -122h-42z" glyph-name="Ugrave" horiz-adv-x="686" unicode="Ù"/>
<glyph d="M338 -7q-121 0 -188.5 67t-67.5 196v459h55v-453q0 -115 51 -168.5t151 -53.5q103 0 154.5 54t51.5 181v440h56v-448q0 -128 -65 -201t-198 -73zM377 893h66l-88 -122h-42z" glyph-name="Uacute" horiz-adv-x="686" unicode="Ú"/>
<glyph d="M338 -7q-121 0 -188.5 67t-67.5 196v459h55v-453q0 -115 51 -168.5t151 -53.5q103 0 154.5 54t51.5 181v440h56v-448q0 -128 -65 -201t-198 -73zM317 893h50l108 -122h-42l-92 78l-93 -78h-41z" glyph-name="Ucircumflex" horiz-adv-x="686" unicode="Û"/>
<glyph d="M338 -7q-121 0 -188.5 67t-67.5 196v459h55v-453q0 -115 51 -168.5t151 -53.5q103 0 154.5 54t51.5 181v440h56v-448q0 -128 -65 -201t-198 -73zM251 788q-16 0 -26.5 11t-10.5 26q0 14 10.5 25t26.5 11q15 0 25.5 -11t10.5 -25q0 -15 -10.5 -26t-25.5 -11zM431 788 q-15 0 -25.5 11t-10.5 26q0 14 10.5 25t25.5 11t25.5 -11t10.5 -25q0 -15 -10.5 -26t-25.5 -11z" glyph-name="Udieresis" horiz-adv-x="686" unicode="Ü"/>
<glyph d="M268 318l-245 397h62l212 -350l202 350h56l-231 -398v-317h-56v318zM328 893h66l-88 -122h-42z" glyph-name="Yacute" horiz-adv-x="582" unicode="Ý"/>
<glyph d="M92 715h56v-144h133q52 0 96.5 -10.5t77.5 -33.5t51.5 -60.5t18.5 -91.5v-4q0 -55 -18.5 -93t-51.5 -61.5t-77.5 -34t-96.5 -10.5h-133v-172h-56v715zM284 217q87 0 136 35.5t49 118.5v4q0 43 -13 71.5t-37.5 46t-58.5 25t-76 7.5h-136v-308h136z" glyph-name="Thorn" horiz-adv-x="572" unicode="Þ"/>
<glyph d="M320 -7q-31 0 -54.5 5t-39.5 11v46q18 -8 40.5 -12.5t51.5 -4.5t57 8t50 27.5t35.5 52t13.5 82.5v7q0 44 -16.5 81.5t-45 64t-68.5 41t-86 13.5v46q42 -1 72 11.5t49.5 32.5t28.5 46t9 52v4q0 57 -34.5 91t-101.5 34q-69 0 -107.5 -43t-38.5 -115v-574h-53v572 q0 47 15.5 84.5t42 64t63 41t78.5 14.5q43 0 78 -12.5t59 -35t37 -53.5t13 -68v-4q0 -27 -8.5 -52.5t-25 -47t-40.5 -37.5t-54 -25q39 -8 73 -27.5t60 -49t41 -67.5t15 -82v-6q0 -61 -18 -102.5t-47 -66.5t-67 -36t-77 -11z" glyph-name="germandbls" horiz-adv-x="574" unicode="ß"/>
<glyph d="M221 -8q-39 0 -71.5 9.5t-56 28t-36.5 46.5t-13 65q0 45 20 75.5t54 49t78.5 26t92.5 7.5h109v47q0 74 -31.5 107t-100.5 33q-60 0 -99 -26.5t-48 -84.5h-52q4 41 22.5 70.5t45.5 48.5t61.5 28t71.5 9q41 0 74.5 -10t57.5 -32.5t37.5 -57.5t13.5 -85v-346h-53v80 q-25 -38 -68 -63t-109 -25zM225 35q36 0 67.5 10t55 28t37 42.5t13.5 53.5v89h-107q-41 0 -76.5 -5t-61.5 -18t-41 -36t-15 -58q0 -51 31.5 -78.5t96.5 -27.5zM161 752h65l68 -147h-41z" glyph-name="agrave" horiz-adv-x="533" unicode="à"/>
<glyph d="M221 -8q-39 0 -71.5 9.5t-56 28t-36.5 46.5t-13 65q0 45 20 75.5t54 49t78.5 26t92.5 7.5h109v47q0 74 -31.5 107t-100.5 33q-60 0 -99 -26.5t-48 -84.5h-52q4 41 22.5 70.5t45.5 48.5t61.5 28t71.5 9q41 0 74.5 -10t57.5 -32.5t37.5 -57.5t13.5 -85v-346h-53v80 q-25 -38 -68 -63t-109 -25zM225 35q36 0 67.5 10t55 28t37 42.5t13.5 53.5v89h-107q-41 0 -76.5 -5t-61.5 -18t-41 -36t-15 -58q0 -51 31.5 -78.5t96.5 -27.5zM308 752h65l-92 -147h-41z" glyph-name="aacute" horiz-adv-x="533" unicode="á"/>
<glyph d="M221 -8q-39 0 -71.5 9.5t-56 28t-36.5 46.5t-13 65q0 45 20 75.5t54 49t78.5 26t92.5 7.5h109v47q0 74 -31.5 107t-100.5 33q-60 0 -99 -26.5t-48 -84.5h-52q4 41 22.5 70.5t45.5 48.5t61.5 28t71.5 9q41 0 74.5 -10t57.5 -32.5t37.5 -57.5t13.5 -85v-346h-53v80 q-25 -38 -68 -63t-109 -25zM225 35q36 0 67.5 10t55 28t37 42.5t13.5 53.5v89h-107q-41 0 -76.5 -5t-61.5 -18t-41 -36t-15 -58q0 -51 31.5 -78.5t96.5 -27.5zM238 740h50l108 -135h-42l-92 90l-93 -90h-41z" glyph-name="acircumflex" horiz-adv-x="533" unicode="â"/>
<glyph d="M221 -8q-39 0 -71.5 9.5t-56 28t-36.5 46.5t-13 65q0 45 20 75.5t54 49t78.5 26t92.5 7.5h109v47q0 74 -31.5 107t-100.5 33q-60 0 -99 -26.5t-48 -84.5h-52q4 41 22.5 70.5t45.5 48.5t61.5 28t71.5 9q41 0 74.5 -10t57.5 -32.5t37.5 -57.5t13.5 -85v-346h-53v80 q-25 -38 -68 -63t-109 -25zM225 35q36 0 67.5 10t55 28t37 42.5t13.5 53.5v89h-107q-41 0 -76.5 -5t-61.5 -18t-41 -36t-15 -58q0 -51 31.5 -78.5t96.5 -27.5zM330 616q-18 0 -34.5 8.5t-32 18t-30 18t-27.5 8.5q-16 0 -28.5 -14t-16.5 -39h-41q6 48 30 73.5t57 25.5 q18 0 34.5 -8.5t31.5 -18t29.5 -18t27.5 -8.5q16 0 29 13.5t17 39.5h40q-6 -48 -30 -73.5t-56 -25.5z" glyph-name="atilde" horiz-adv-x="533" unicode="ã"/>
<glyph d="M221 -8q-39 0 -71.5 9.5t-56 28t-36.5 46.5t-13 65q0 45 20 75.5t54 49t78.5 26t92.5 7.5h109v47q0 74 -31.5 107t-100.5 33q-60 0 -99 -26.5t-48 -84.5h-52q4 41 22.5 70.5t45.5 48.5t61.5 28t71.5 9q41 0 74.5 -10t57.5 -32.5t37.5 -57.5t13.5 -85v-346h-53v80 q-25 -38 -68 -63t-109 -25zM225 35q36 0 67.5 10t55 28t37 42.5t13.5 53.5v89h-107q-41 0 -76.5 -5t-61.5 -18t-41 -36t-15 -58q0 -51 31.5 -78.5t96.5 -27.5zM185 636q-16 0 -26.5 11t-10.5 26t10.5 25.5t26.5 10.5q15 0 25.5 -10.5t10.5 -25.5t-10.5 -26t-25.5 -11z M351 636q-15 0 -25.5 11t-10.5 26t10.5 25.5t25.5 10.5q16 0 26.5 -10.5t10.5 -25.5t-10.5 -26t-26.5 -11z" glyph-name="adieresis" horiz-adv-x="533" unicode="ä"/>
<glyph d="M221 -8q-39 0 -71.5 9.5t-56 28t-36.5 46.5t-13 65q0 45 20 75.5t54 49t78.5 26t92.5 7.5h109v47q0 74 -31.5 107t-100.5 33q-60 0 -99 -26.5t-48 -84.5h-52q4 41 22.5 70.5t45.5 48.5t61.5 28t71.5 9q41 0 74.5 -10t57.5 -32.5t37.5 -57.5t13.5 -85v-346h-53v80 q-25 -38 -68 -63t-109 -25zM225 35q36 0 67.5 10t55 28t37 42.5t13.5 53.5v89h-107q-41 0 -76.5 -5t-61.5 -18t-41 -36t-15 -58q0 -51 31.5 -78.5t96.5 -27.5zM268 633q26 0 43.5 18t17.5 45q0 28 -17.5 46t-43.5 18t-43.5 -18t-17.5 -46q0 -27 17.5 -45t43.5 -18zM268 601 q-20 0 -37.5 7.5t-31 20.5t-21.5 30t-8 37q0 19 8 36.5t21.5 31t31 21t37.5 7.5t38 -7.5t31.5 -21t21 -31t7.5 -36.5q0 -20 -7.5 -37t-21 -30t-31.5 -20.5t-38 -7.5z" glyph-name="aring" horiz-adv-x="533" unicode="å"/>
<glyph d="M638 -8q-75 0 -128.5 35t-80.5 96q-26 -66 -80.5 -98.5t-127.5 -32.5q-39 0 -71.5 9t-56 27.5t-36.5 46.5t-13 65q0 46 20 76.5t53.5 49t77.5 26t92 7.5h113v46q0 74 -32.5 107.5t-101.5 33.5q-60 0 -99 -26.5t-48 -84.5h-52q4 41 22.5 70.5t46 48.5t61.5 28t71 9 q65 0 109.5 -26.5t61.5 -87.5q29 54 78.5 84t114.5 30q46 0 86.5 -15.5t71 -47t48 -79.5t17.5 -113v-18h-403q2 -106 48.5 -163.5t138.5 -57.5q64 0 105 27t54 82h53q-16 -75 -73.5 -114.5t-139.5 -39.5zM226 35q36 0 67.5 10t55 29t37.5 46t14 61v77h-112q-41 0 -76 -5 t-60.5 -18.5t-40 -36.5t-14.5 -58q0 -51 31.5 -78t97.5 -27zM801 299q-4 97 -49 142t-120 45t-123 -50.5t-56 -136.5h348z" glyph-name="ae" horiz-adv-x="901" unicode="æ"/>
<glyph d="M274 -212q-41 0 -66.5 21.5t-29.5 56.5h44q3 -17 15.5 -29.5t34.5 -12.5q23 0 36.5 12t13.5 32q0 22 -14 30.5t-31 8.5q-13 0 -22 -3t-14 -5l-26 21l42 75q-46 6 -85.5 27t-68 55t-44.5 79.5t-16 99.5v8q0 60 19.5 109t53.5 84.5t79.5 54.5t97.5 19q40 0 77 -10.5 t66.5 -32t49.5 -54.5t25 -77h-52q-5 33 -20 57.5t-37 40t-50 23.5t-59 8q-41 0 -76.5 -15.5t-62 -44t-41.5 -69.5t-15 -93v-8q0 -52 15 -92.5t41 -68.5t62 -43t77 -15q33 0 62 9.5t52.5 27.5t39 45t20.5 62h49q-5 -42 -23.5 -76t-47 -59t-66 -39t-81.5 -15l-30 -53 q18 4 36.5 1.5t32.5 -11.5t23 -24.5t9 -38.5q0 -38 -28 -58t-67 -20z" glyph-name="ccedilla" horiz-adv-x="560" unicode="ç"/>
<glyph d="M291 -8q-57 0 -102.5 19t-78 54t-50 83.5t-17.5 107.5v8q0 59 18 108t49.5 84.5t75.5 55t97 19.5q47 0 89 -15.5t73 -47t49 -79.5t18 -113v-19h-414q2 -106 50.5 -163t142.5 -57q66 0 108 27t56 82h53q-17 -75 -74.5 -114.5t-142.5 -39.5zM457 300q-4 96 -50.5 141 t-123.5 45q-38 0 -70 -13t-56 -37t-38.5 -58.5t-18.5 -77.5h357zM175 752h65l68 -147h-41z" glyph-name="egrave" horiz-adv-x="558" unicode="è"/>
<glyph d="M291 -8q-57 0 -102.5 19t-78 54t-50 83.5t-17.5 107.5v8q0 59 18 108t49.5 84.5t75.5 55t97 19.5q47 0 89 -15.5t73 -47t49 -79.5t18 -113v-19h-414q2 -106 50.5 -163t142.5 -57q66 0 108 27t56 82h53q-17 -75 -74.5 -114.5t-142.5 -39.5zM457 300q-4 96 -50.5 141 t-123.5 45q-38 0 -70 -13t-56 -37t-38.5 -58.5t-18.5 -77.5h357zM322 752h65l-92 -147h-41z" glyph-name="eacute" horiz-adv-x="558" unicode="é"/>
<glyph d="M291 -8q-57 0 -102.5 19t-78 54t-50 83.5t-17.5 107.5v8q0 59 18 108t49.5 84.5t75.5 55t97 19.5q47 0 89 -15.5t73 -47t49 -79.5t18 -113v-19h-414q2 -106 50.5 -163t142.5 -57q66 0 108 27t56 82h53q-17 -75 -74.5 -114.5t-142.5 -39.5zM457 300q-4 96 -50.5 141 t-123.5 45q-38 0 -70 -13t-56 -37t-38.5 -58.5t-18.5 -77.5h357zM258 740h50l108 -135h-42l-92 90l-93 -90h-41z" glyph-name="ecircumflex" horiz-adv-x="558" unicode="ê"/>
<glyph d="M291 -8q-57 0 -102.5 19t-78 54t-50 83.5t-17.5 107.5v8q0 59 18 108t49.5 84.5t75.5 55t97 19.5q47 0 89 -15.5t73 -47t49 -79.5t18 -113v-19h-414q2 -106 50.5 -163t142.5 -57q66 0 108 27t56 82h53q-17 -75 -74.5 -114.5t-142.5 -39.5zM457 300q-4 96 -50.5 141 t-123.5 45q-38 0 -70 -13t-56 -37t-38.5 -58.5t-18.5 -77.5h357zM199 636q-16 0 -26.5 11t-10.5 26t10.5 25.5t26.5 10.5q15 0 25.5 -10.5t10.5 -25.5t-10.5 -26t-25.5 -11zM365 636q-15 0 -25.5 11t-10.5 26t10.5 25.5t25.5 10.5q16 0 26.5 -10.5t10.5 -25.5t-10.5 -26 t-26.5 -11z" glyph-name="edieresis" horiz-adv-x="558" unicode="ë"/>
<glyph d="M84 523h53v-523h-53v523zM1 752h65l68 -147h-41z" glyph-name="igrave" horiz-adv-x="225" unicode="ì"/>
<glyph d="M84 523h53v-523h-53v523zM154 752h65l-92 -147h-41z" glyph-name="iacute" horiz-adv-x="225" unicode="í"/>
<glyph d="M84 523h53v-523h-53v523zM87 740h50l108 -135h-42l-92 90l-93 -90h-41z" glyph-name="icircumflex" horiz-adv-x="225" unicode="î"/>
<glyph d="M36 636q-15 0 -25.5 11t-10.5 26t10.5 25.5t25.5 10.5t26 -10.5t11 -25.5t-11 -26t-26 -11zM185 636q-15 0 -26 11t-11 26t11 25.5t26 10.5t25.5 -10.5t10.5 -25.5t-10.5 -26t-25.5 -11zM84 523h53v-523h-53v523z" glyph-name="idieresis" horiz-adv-x="225" unicode="ï"/>
<glyph d="M140 615l121 70q-29 24 -60.5 46t-63.5 42h71q22 -12 46 -27.5t50 -35.5l98 58l19 -33l-87 -50q40 -35 78.5 -78t68.5 -94.5t48.5 -110t18.5 -124.5v-18q0 -59 -19.5 -108.5t-54 -85t-80.5 -55t-99 -19.5t-99 19.5t-80 55t-53.5 84t-19.5 106.5v8q0 59 19.5 108t52.5 84 t76.5 54.5t90.5 19.5q66 0 108.5 -26t71.5 -65q-28 61 -72 116t-99 104l-132 -76zM295 37q42 0 78.5 15.5t63 44t41.5 69.5t15 92v13q0 49 -15 89t-41.5 68t-63.5 43t-80 15q-41 0 -76.5 -15.5t-62 -44t-41.5 -69.5t-15 -92v-8q0 -50 15 -91t41 -69.5t62.5 -44t78.5 -15.5z " glyph-name="eth" horiz-adv-x="598" unicode="ð"/>
<glyph d="M82 523h53v-102q9 21 26 41t40.5 35.5t53.5 24.5t65 9q42 0 76 -11.5t58.5 -37t38 -65t13.5 -95.5v-322h-53v325q0 84 -37.5 122t-107.5 38q-33 0 -64 -11t-55 -32t-39 -52.5t-15 -72.5v-317h-53v523zM352 616q-18 0 -34.5 8.5t-32 18t-30 18t-27.5 8.5q-16 0 -28.5 -14 t-16.5 -39h-41q6 48 30 73.5t57 25.5q18 0 34.5 -8.5t31.5 -18t29.5 -18t27.5 -8.5q16 0 29 13.5t17 39.5h40q-6 -48 -30 -73.5t-56 -25.5z" glyph-name="ntilde" horiz-adv-x="587" unicode="ñ"/>
<glyph d="M296 37q42 0 78 15.5t62.5 44t41.5 69t15 91.5v8q0 52 -15 93t-41.5 69.5t-62.5 43.5t-78 15t-78 -15.5t-63 -44t-42 -69.5t-15 -92v-8q0 -50 15 -91t41.5 -69.5t62.5 -44t79 -15.5zM295 -8q-53 0 -99 19.5t-80 55t-53.5 84t-19.5 106.5v8q0 59 20 108t54 84t80 54.5 t99 19.5t99 -19t80 -54t53.5 -83.5t19.5 -108.5v-8q0 -59 -19.5 -108t-54 -84t-80.5 -54.5t-99 -19.5zM188 752h65l68 -147h-41z" glyph-name="ograve" horiz-adv-x="595" unicode="ò"/>
<glyph d="M296 37q42 0 78 15.5t62.5 44t41.5 69t15 91.5v8q0 52 -15 93t-41.5 69.5t-62.5 43.5t-78 15t-78 -15.5t-63 -44t-42 -69.5t-15 -92v-8q0 -50 15 -91t41.5 -69.5t62.5 -44t79 -15.5zM295 -8q-53 0 -99 19.5t-80 55t-53.5 84t-19.5 106.5v8q0 59 20 108t54 84t80 54.5 t99 19.5t99 -19t80 -54t53.5 -83.5t19.5 -108.5v-8q0 -59 -19.5 -108t-54 -84t-80.5 -54.5t-99 -19.5zM335 752h65l-92 -147h-41z" glyph-name="oacute" horiz-adv-x="595" unicode="ó"/>
<glyph d="M296 37q42 0 78 15.5t62.5 44t41.5 69t15 91.5v8q0 52 -15 93t-41.5 69.5t-62.5 43.5t-78 15t-78 -15.5t-63 -44t-42 -69.5t-15 -92v-8q0 -50 15 -91t41.5 -69.5t62.5 -44t79 -15.5zM295 -8q-53 0 -99 19.5t-80 55t-53.5 84t-19.5 106.5v8q0 59 20 108t54 84t80 54.5 t99 19.5t99 -19t80 -54t53.5 -83.5t19.5 -108.5v-8q0 -59 -19.5 -108t-54 -84t-80.5 -54.5t-99 -19.5zM271 740h50l108 -135h-42l-92 90l-93 -90h-41z" glyph-name="ocircumflex" horiz-adv-x="595" unicode="ô"/>
<glyph d="M296 37q42 0 78 15.5t62.5 44t41.5 69t15 91.5v8q0 52 -15 93t-41.5 69.5t-62.5 43.5t-78 15t-78 -15.5t-63 -44t-42 -69.5t-15 -92v-8q0 -50 15 -91t41.5 -69.5t62.5 -44t79 -15.5zM295 -8q-53 0 -99 19.5t-80 55t-53.5 84t-19.5 106.5v8q0 59 20 108t54 84t80 54.5 t99 19.5t99 -19t80 -54t53.5 -83.5t19.5 -108.5v-8q0 -59 -19.5 -108t-54 -84t-80.5 -54.5t-99 -19.5zM357 616q-18 0 -34.5 8.5t-32 18t-30 18t-27.5 8.5q-16 0 -28.5 -14t-16.5 -39h-41q6 48 30 73.5t57 25.5q18 0 34.5 -8.5t31.5 -18t29.5 -18t27.5 -8.5q16 0 29 13.5 t17 39.5h40q-6 -48 -30 -73.5t-56 -25.5z" glyph-name="otilde" horiz-adv-x="595" unicode="õ"/>
<glyph d="M296 37q42 0 78 15.5t62.5 44t41.5 69t15 91.5v8q0 52 -15 93t-41.5 69.5t-62.5 43.5t-78 15t-78 -15.5t-63 -44t-42 -69.5t-15 -92v-8q0 -50 15 -91t41.5 -69.5t62.5 -44t79 -15.5zM295 -8q-53 0 -99 19.5t-80 55t-53.5 84t-19.5 106.5v8q0 59 20 108t54 84t80 54.5 t99 19.5t99 -19t80 -54t53.5 -83.5t19.5 -108.5v-8q0 -59 -19.5 -108t-54 -84t-80.5 -54.5t-99 -19.5zM212 636q-16 0 -26.5 11t-10.5 26t10.5 25.5t26.5 10.5q15 0 25.5 -10.5t10.5 -25.5t-10.5 -26t-25.5 -11zM378 636q-15 0 -25.5 11t-10.5 26t10.5 25.5t25.5 10.5 q16 0 26.5 -10.5t10.5 -25.5t-10.5 -26t-26.5 -11z" glyph-name="odieresis" horiz-adv-x="595" unicode="ö"/>
<glyph d="M255 122q-18 0 -30.5 12.5t-12.5 30.5q0 17 12.5 29.5t30.5 12.5q17 0 29.5 -12.5t12.5 -29.5q0 -18 -12.5 -30.5t-29.5 -12.5zM36 365h438v-46h-438v46zM255 477q-18 0 -30.5 12.5t-12.5 30.5q0 17 12.5 29.5t30.5 12.5q17 0 29.5 -12.5t12.5 -29.5q0 -18 -12.5 -30.5 t-29.5 -12.5z" glyph-name="divide" horiz-adv-x="514" unicode="÷"/>
<glyph d="M31 0l72 80q-29 35 -44.5 79.5t-15.5 97.5v8q0 59 20 108t54 84t80 54.5t99 19.5q47 0 88 -15t74 -43l64 72l29 -25l-66 -73q29 -35 46 -80.5t17 -100.5v-8q0 -59 -19.5 -108t-54 -84t-80.5 -54.5t-99 -19.5q-48 0 -90 15.5t-75 44.5l-69 -77zM296 37q42 0 78 15.5 t62.5 44t41.5 69t15 91.5v8q0 44 -11 80t-31 64l-289 -321q54 -51 134 -51zM98 257q0 -83 39 -139l288 319q-52 49 -129 49q-42 0 -78 -15.5t-63 -44t-42 -69.5t-15 -92v-8z" glyph-name="oslash" horiz-adv-x="595" unicode="ø"/>
<glyph d="M261 -8q-41 0 -74.5 11t-58 35t-38 62t-13.5 92v331h53v-328q0 -84 37 -120.5t106 -36.5q32 0 62.5 10.5t54.5 31.5t39 52.5t15 72.5v318h53v-523h-53v100q-9 -21 -26 -40.5t-40 -34.5t-53 -24t-64 -9zM182 752h65l68 -147h-41z" glyph-name="ugrave" horiz-adv-x="583" unicode="ù"/>
<glyph d="M261 -8q-41 0 -74.5 11t-58 35t-38 62t-13.5 92v331h53v-328q0 -84 37 -120.5t106 -36.5q32 0 62.5 10.5t54.5 31.5t39 52.5t15 72.5v318h53v-523h-53v100q-9 -21 -26 -40.5t-40 -34.5t-53 -24t-64 -9zM329 752h65l-92 -147h-41z" glyph-name="uacute" horiz-adv-x="583" unicode="ú"/>
<glyph d="M261 -8q-41 0 -74.5 11t-58 35t-38 62t-13.5 92v331h53v-328q0 -84 37 -120.5t106 -36.5q32 0 62.5 10.5t54.5 31.5t39 52.5t15 72.5v318h53v-523h-53v100q-9 -21 -26 -40.5t-40 -34.5t-53 -24t-64 -9zM265 740h50l108 -135h-42l-92 90l-93 -90h-41z" glyph-name="ucircumflex" horiz-adv-x="583" unicode="û"/>
<glyph d="M261 -8q-41 0 -74.5 11t-58 35t-38 62t-13.5 92v331h53v-328q0 -84 37 -120.5t106 -36.5q32 0 62.5 10.5t54.5 31.5t39 52.5t15 72.5v318h53v-523h-53v100q-9 -21 -26 -40.5t-40 -34.5t-53 -24t-64 -9zM206 636q-16 0 -26.5 11t-10.5 26t10.5 25.5t26.5 10.5 q15 0 25.5 -10.5t10.5 -25.5t-10.5 -26t-25.5 -11zM372 636q-15 0 -25.5 11t-10.5 26t10.5 25.5t25.5 10.5q16 0 26.5 -10.5t10.5 -25.5t-10.5 -26t-26.5 -11z" glyph-name="udieresis" horiz-adv-x="583" unicode="ü"/>
<glyph d="M232 45l-207 478h57l179 -417l167 417h54l-290 -705h-55zM297 752h65l-92 -147h-41z" glyph-name="yacute" horiz-adv-x="512" unicode="ý"/>
<glyph d="M82 773h53v-372q12 26 31.5 49.5t45.5 41.5t57 28.5t66 10.5q49 0 92 -18.5t74.5 -52.5t49.5 -83t18 -110v-8q0 -62 -17.5 -111t-49 -84t-74.5 -53.5t-94 -18.5q-39 0 -71 11t-57 28.5t-43 40.5t-28 47v-301h-53v955zM330 37q83 0 133.5 57t50.5 163v8q0 54 -14.5 95.5 t-40 69t-59 42t-70.5 14.5q-39 0 -74.5 -14.5t-62.5 -42t-43 -69t-16 -95.5v-8q0 -54 15.5 -95t42 -68.5t62 -42t76.5 -14.5z" glyph-name="thorn" horiz-adv-x="616" unicode="þ"/>
<glyph d="M84 523h53v-523h-53v523z" glyph-name="dotlessi" horiz-adv-x="225" unicode="ı"/>
<glyph d="M176 740h50l108 -135h-42l-92 90l-93 -90h-41z" glyph-name="circumflex" unicode="ˆ"/>
<glyph d="M200 633q26 0 43.5 18t17.5 45q0 28 -17.5 46t-43.5 18t-43.5 -18t-17.5 -46q0 -27 17.5 -45t43.5 -18zM200 601q-20 0 -37.5 7.5t-31 20.5t-21.5 30t-8 37q0 19 8 36.5t21.5 31t31 21t37.5 7.5t38 -7.5t31.5 -21t21 -31t7.5 -36.5q0 -20 -7.5 -37t-21 -30t-31.5 -20.5 t-38 -7.5z" glyph-name="ring" unicode="˚"/>
<glyph d="M264 616q-18 0 -34.5 8.5t-32 18t-30 18t-27.5 8.5q-16 0 -28.5 -14t-16.5 -39h-41q6 48 30 73.5t57 25.5q18 0 34.5 -8.5t31.5 -18t29.5 -18t27.5 -8.5q16 0 29 13.5t17 39.5h40q-6 -48 -30 -73.5t-56 -25.5z" glyph-name="tilde" unicode="˜"/>
<glyph d="M96 893h66l64 -122h-42z" glyph-name="grave.uc"/>
<glyph d="M110 788q-16 0 -26.5 11t-10.5 26q0 14 10.5 25t26.5 11q15 0 25.5 -11t10.5 -25q0 -15 -10.5 -26t-25.5 -11zM290 788q-15 0 -25.5 11t-10.5 26q0 14 10.5 25t25.5 11t25.5 -11t10.5 -25q0 -15 -10.5 -26t-25.5 -11z" glyph-name="dieresis.uc"/>
<glyph d="M238 893h66l-88 -122h-42z" glyph-name="acute.uc"/>
<glyph d="M176 893h50l108 -122h-42l-92 78l-93 -78h-41z" glyph-name="circumflex.uc"/>
<glyph d="M200 786q26 0 43.5 18.5t17.5 45.5t-17.5 45.5t-43.5 18.5t-43.5 -18.5t-17.5 -45.5t17.5 -45.5t43.5 -18.5zM200 754q-20 0 -37.5 7.5t-31 21t-21.5 30.5t-8 37q0 19 8 36.5t21.5 30.5t31 20.5t37.5 7.5t38 -7.5t31.5 -20.5t21 -30.5t7.5 -36.5q0 -20 -7.5 -37 t-21 -30.5t-31.5 -21t-38 -7.5z" glyph-name="ring.uc"/>
<glyph d="M264 774q-18 0 -34.5 8.5t-32 18t-29.5 18t-27 8.5q-17 0 -29.5 -14t-16.5 -40h-41q6 48 30 73.5t57 25.5q18 0 34 -8.5t31.5 -18t29.5 -18t28 -8.5q17 0 29.5 14t16.5 40h40q-6 -48 -30 -73.5t-56 -25.5z" glyph-name="tilde.uc"/>
</font>
</defs>
</svg>
